<?xml version="1.0" standalone="no"?>
<!DOCTYPE svg PUBLIC "-//W3C//DTD SVG 1.1//EN" "http://www.w3.org/Graphics/SVG/1.1/DTD/svg11.dtd" >
<svg xmlns="http://www.w3.org/2000/svg" xmlns:xlink="http://www.w3.org/1999/xlink" version="1.1">
<metadata>
Created by FontForge 20150824 at Mon Aug 15 22:24:30 2016
 By Everything Fonts
Copyright \(c\) 2015 by Eric Lobdell. All rights reserved.
</metadata>
<defs>
<font id="Affogato-Regular" horiz-adv-x="0" >
  <font-face 
    font-family="Affogato"
    font-weight="400"
    font-stretch="normal"
    units-per-em="880"
    panose-1="0 0 5 0 0 0 0 0 0 0"
    ascent="704"
    descent="-176"
    x-height="440"
    cap-height="563"
    bbox="-515 -215 985 834"
    underline-thickness="50"
    underline-position="-100"
    unicode-range="U+0020-FB02"
  />
<missing-glyph horiz-adv-x="503" 
d="M412 800v-1005h-319v1005h319zM335 733h-166v-34h65v-37h-66v-33h167v33h-67v37h67v34zM268 603h-100v-105h167v35h-67v70zM234 569v-36h-33v36h33zM335 471h-167v-33h66v-37h-66v-33h100v70h67v33zM335 411h-34v-66h-133v-34h167v100zM335 288h-101v-56h34v23h33v-47
h-100v80h-33v-113h167v113zM335 115h-167v-114h167v114zM301 81v-47h-100v47h100zM335 -22h-167v-33h70l-70 -47v-34h167v34h-103l71 47h32v33z" />
    <glyph glyph-name="fi" unicode="fi" horiz-adv-x="500" 
d="M103 486c0 70 53 117 118 117c23 0 47 -5 62 -11l-12 -41c-11 4 -22 7 -47 7c-39 -1 -71 -32 -71 -74v-62h98v-44h-98v-378h-50v378h-58v44h58v64zM385 576c24 0 40 -16 40 -39s-16 -39 -40 -39c-22 0 -39 16 -39 39s17 39 39 39zM360 0l1 436l50 3l-1 -439h-50z" />
    <glyph glyph-name="fl" unicode="fl" horiz-adv-x="530" 
d="M103 486c0 70 53 117 118 117c23 0 47 -5 62 -11l-12 -41c-11 4 -22 7 -47 7c-39 -1 -71 -32 -71 -74v-62h98v-44h-98v-378h-50v378h-58v44h58v64zM474 49h28v-49h-31c-81 0 -115 40 -115 129l1 460l50 3l-1 -453c0 -54 10 -89 68 -90z" />
    <glyph glyph-name="f_h.liga" unicode="fh" horiz-adv-x="788" 
d="M103 486c0 70 53 117 118 117c23 0 47 -5 62 -11l-12 -41c-11 4 -22 7 -47 7c-39 -1 -71 -32 -71 -74v-62h98v-44h-98v-378h-50v378h-58v44h58v64zM535 445c98 13 168 -56 168 -155v-290h-50v278c0 83 -55 132 -130 120c-44 -7 -89 -46 -113 -87v-311h-50v592l50 3v-230
c30 40 75 73 125 80z" />
    <glyph glyph-name="f_j.liga" unicode="fj" horiz-adv-x="495" 
d="M251 378h-98v-378h-50v378h-58v44h58v64c0 70 53 117 118 117c23 0 47 -5 62 -11l-12 -41c-11 4 -22 7 -47 7c-39 -1 -71 -32 -71 -74v-62h98v-44zM382 587c24 0 40 -16 40 -39s-16 -39 -40 -39c-22 0 -39 16 -39 39s17 39 39 39zM357 -55v490l50 3v-492
c0 -108 -49 -152 -117 -152c-26 0 -50 7 -66 15l14 43c10 -4 21 -8 46 -8c41 1 73 26 73 101z" />
    <glyph glyph-name="f_t.liga" unicode="ft" horiz-adv-x="561" 
d="M103 486c0 70 53 117 118 117c23 0 47 -5 62 -11l-12 -41c-11 4 -22 7 -47 7c-39 -1 -71 -32 -71 -74v-62h98v-44h-98v-378h-50v378h-58v44h58v64zM489 49h28v-49h-31c-81 0 -115 41 -115 129l1 248h-56v48h56v135l50 3v-138h85v-48h-85l-1 -238c0 -54 10 -89 68 -90z
" />
    <glyph glyph-name="q_j.liga" unicode="qj" horiz-adv-x="705" 
d="M578 587c24 0 40 -16 40 -39s-16 -39 -40 -39c-22 0 -39 16 -39 39s17 39 39 39zM345 409l2 35l48 -4v-637l-50 3v264c-32 -33 -67 -63 -112 -70c-110 -17 -186 76 -186 222c0 133 77 251 200 222c39 -9 69 -40 98 -74v39zM553 -55v490l50 3v-492
c0 -108 -49 -152 -117 -152c-26 0 -50 7 -66 15l14 43c10 -4 21 -8 46 -8c41 1 73 26 73 101zM232 45c41 5 73 30 113 70v209c-30 35 -61 67 -100 75c-87 18 -146 -66 -146 -177c0 -117 54 -184 133 -177z" />
    <glyph glyph-name=".notdef" horiz-adv-x="503" 
d="M412 800v-1005h-319v1005h319zM335 733h-166v-34h65v-37h-66v-33h167v33h-67v37h67v34zM268 603h-100v-105h167v35h-67v70zM234 569v-36h-33v36h33zM335 471h-167v-33h66v-37h-66v-33h100v70h67v33zM335 411h-34v-66h-133v-34h167v100zM335 288h-101v-56h34v23h33v-47
h-100v80h-33v-113h167v113zM335 115h-167v-114h167v114zM301 81v-47h-100v47h100zM335 -22h-167v-33h70l-70 -47v-34h167v34h-103l71 47h32v33z" />
    <glyph glyph-name="A" unicode="A" horiz-adv-x="497" 
d="M407 0l-38 123h-242l-38 -123h-50l177 557l65 4l176 -561h-50zM142 169h213l-107 341z" />
    <glyph glyph-name="Aacute" unicode="&#xc1;" horiz-adv-x="497" 
d="M399 753l-167 -103l-20 32l158 116zM407 0l-38 123h-242l-38 -123h-50l177 557l65 4l176 -561h-50zM142 169h213l-107 341z" />
    <glyph glyph-name="Abreve" unicode="&#x102;" horiz-adv-x="497" 
d="M249 663c-50 0 -89 29 -115 65l33 27c11 -18 39 -49 82 -49c41 0 68 30 82 49l32 -27c-27 -36 -63 -65 -114 -65zM407 0l-38 123h-242l-38 -123h-50l177 557l65 4l176 -561h-50zM142 169h213l-107 341z" />
    <glyph glyph-name="uni01CD" unicode="&#x1cd;" horiz-adv-x="497" 
d="M361 750l-112 -106l-112 107l31 29l80 -79l83 79zM407 0l-38 123h-242l-38 -123h-50l177 557l65 4l176 -561h-50zM142 169h213l-107 341z" />
    <glyph glyph-name="Acircumflex" unicode="&#xc2;" horiz-adv-x="497" 
d="M248 725l-80 -79l-31 29l112 107l112 -106l-30 -30zM407 0l-38 123h-242l-38 -123h-50l177 557l65 4l176 -561h-50zM142 169h213l-107 341z" />
    <glyph glyph-name="Adieresis" unicode="&#xc4;" horiz-adv-x="497" 
d="M165 673c-22 0 -37 15 -37 37s15 37 37 37s37 -15 37 -37s-15 -37 -37 -37zM320 672c-22 0 -37 15 -37 37s15 37 37 37s37 -15 37 -37s-15 -37 -37 -37zM407 0l-38 123h-242l-38 -123h-50l177 557l65 4l176 -561h-50zM142 169h213l-107 341z" />
    <glyph glyph-name="Agrave" unicode="&#xc0;" horiz-adv-x="497" 
d="M283 682l-20 -33l-167 104l29 45zM407 0l-38 123h-242l-38 -123h-50l177 557l65 4l176 -561h-50zM142 169h213l-107 341z" />
    <glyph glyph-name="Amacron" unicode="&#x100;" horiz-adv-x="497" 
d="M349 718v-42h-202v42h202zM407 0l-38 123h-242l-38 -123h-50l177 557l65 4l176 -561h-50zM142 169h213l-107 341z" />
    <glyph glyph-name="Aogonek" unicode="&#x104;" horiz-adv-x="497" 
d="M456 0c-38 -26 -72 -51 -97 -83c-46 -60 16 -109 73 -60l20 -27c-97 -75 -191 17 -122 103c26 32 48 48 77 68l-38 122h-242l-38 -123h-50l177 557l65 4l176 -560v-1h-1zM142 169h213l-107 341z" />
    <glyph glyph-name="Aring" unicode="&#xc5;" horiz-adv-x="497" 
d="M250 642c-41 0 -74 34 -74 73c0 41 33 73 74 73c39 0 71 -32 71 -73c0 -39 -32 -73 -71 -73zM249 753c-20 0 -36 -17 -36 -38c0 -20 16 -36 36 -36c21 0 35 16 35 36c0 21 -14 38 -35 38zM407 0l-38 123h-242l-38 -123h-50l177 557l65 4l176 -561h-50zM142 169h213
l-107 341z" />
    <glyph glyph-name="Atilde" unicode="&#xc3;" horiz-adv-x="497" 
d="M200 706c-17 0 -24 -18 -32 -37l-38 18c9 24 27 63 65 63c36 0 69 -40 99 -40c19 0 26 11 35 35l39 -17c-7 -20 -24 -63 -68 -63c-42 1 -70 41 -100 41zM407 0l-38 123h-242l-38 -123h-50l177 557l65 4l176 -561h-50zM142 169h213l-107 341z" />
    <glyph glyph-name="AE" unicode="&#xc6;" horiz-adv-x="660" 
d="M610 513h-269v-224h201v-47h-201v-195h269v-47h-320v130h-186l-67 -130h-52l287 560h338v-47zM126 173h164v320z" />
    <glyph glyph-name="B" unicode="B" horiz-adv-x="523" 
d="M92 0v559c56 3 138 6 175 6c97 0 155 -56 155 -142c0 -68 -29 -102 -58 -123c52 -17 95 -68 95 -142c0 -102 -79 -158 -166 -158h-201zM143 312h127c69 0 101 50 101 107c0 61 -50 98 -109 98c-42 0 -77 -1 -119 -3v-202zM143 49h142c69 0 121 44 121 113
c0 58 -36 105 -107 105h-156v-218z" />
    <glyph glyph-name="C" unicode="C" horiz-adv-x="544" 
d="M290 -5c-111 0 -227 90 -227 276v18c0 186 116 276 227 276c86 0 154 -48 190 -121l-43 -21c-30 56 -79 93 -147 93c-84 0 -177 -67 -177 -227v-18c0 -159 93 -226 176 -226c69 0 119 37 147 94l44 -21c-35 -76 -104 -123 -190 -123z" />
    <glyph glyph-name="Cacute" unicode="&#x106;" horiz-adv-x="544" 
d="M272 650l-20 32l158 116l29 -45zM290 -5c-111 0 -227 90 -227 276v18c0 186 116 276 227 276c86 0 154 -48 190 -121l-43 -21c-30 56 -79 93 -147 93c-84 0 -177 -67 -177 -227v-18c0 -159 93 -226 176 -226c69 0 119 37 147 94l44 -21c-35 -76 -104 -123 -190 -123z" />
    <glyph glyph-name="Ccaron" unicode="&#x10c;" horiz-adv-x="544" 
d="M401 750l-112 -106l-112 107l31 29l80 -79l83 79zM289 45c69 0 119 37 147 94l44 -21c-35 -76 -104 -123 -190 -123c-111 0 -227 90 -227 276v18c0 186 116 276 227 276c86 0 154 -48 190 -121l-43 -21c-30 56 -79 93 -147 93c-84 0 -177 -67 -177 -227v-18
c0 -159 93 -226 176 -226z" />
    <glyph glyph-name="Ccedilla" unicode="&#xc7;" horiz-adv-x="544" 
d="M289 45c69 0 119 37 147 94l44 -21c-35 -76 -103 -123 -189 -123l-2 -37c62 10 107 -26 107 -76c0 -58 -43 -88 -94 -88c-53 0 -81 30 -88 45l24 21c7 -10 25 -30 63 -30c30 0 56 19 56 53c0 26 -22 48 -66 49c-15 0 -26 -1 -38 -1l1 67c-99 18 -191 107 -191 273v18
c0 186 116 276 227 276c86 0 154 -48 190 -121l-43 -21c-30 56 -79 93 -147 93c-84 0 -177 -67 -177 -227v-18c0 -159 93 -226 176 -226z" />
    <glyph glyph-name="Cdotaccent" unicode="&#x10a;" horiz-adv-x="544" 
d="M288 650c-22 0 -39 16 -39 39s17 39 39 39c24 0 40 -16 40 -39s-16 -39 -40 -39zM290 -5c-111 0 -227 90 -227 276v18c0 186 116 276 227 276c86 0 154 -48 190 -121l-43 -21c-30 56 -79 93 -147 93c-84 0 -177 -67 -177 -227v-18c0 -159 93 -226 176 -226
c69 0 119 37 147 94l44 -21c-35 -76 -104 -123 -190 -123z" />
    <glyph glyph-name="D" unicode="D" horiz-adv-x="546" 
d="M92 0v559c52 4 98 5 151 6c111 0 239 -72 239 -287c0 -249 -170 -278 -249 -278h-141zM143 50h90c113 0 198 64 198 227c0 164 -92 237 -190 237c-37 0 -65 0 -98 -2v-462z" />
    <glyph glyph-name="Eth" unicode="&#xd0;" horiz-adv-x="546" 
d="M145 676v42h202v-42h-202zM92 0v559c52 4 98 5 151 6c111 0 239 -72 239 -287c0 -249 -170 -278 -249 -278h-141zM143 50h90c113 0 198 64 198 227c0 164 -92 237 -190 237c-37 0 -65 0 -98 -2v-462z" />
    <glyph glyph-name="Dcaron" unicode="&#x10e;" horiz-adv-x="546" 
d="M359 750l-112 -106l-112 107l31 29l80 -79l83 79zM243 565c111 0 239 -72 239 -287c0 -249 -170 -278 -249 -278h-141v559c52 4 98 5 151 6zM233 50c113 0 198 64 198 227c0 164 -92 237 -190 237c-37 0 -65 0 -98 -2v-462h90z" />
    <glyph glyph-name="Dcroat" unicode="&#x110;" horiz-adv-x="546" 
d="M145 676v42h202v-42h-202zM92 0v559c52 4 98 5 151 6c111 0 239 -72 239 -287c0 -249 -170 -278 -249 -278h-141zM143 50h90c113 0 198 64 198 227c0 164 -92 237 -190 237c-37 0 -65 0 -98 -2v-462z" />
    <glyph glyph-name="E" unicode="E" horiz-adv-x="460" 
d="M410 513h-269v-224h201v-47h-201v-195h269v-47h-318v560h318v-47z" />
    <glyph glyph-name="Eacute" unicode="&#xc9;" horiz-adv-x="460" 
d="M401 761l-167 -103l-20 32l158 116zM410 513h-269v-224h201v-47h-201v-195h269v-47h-318v560h318v-47z" />
    <glyph glyph-name="Ecaron" unicode="&#x11a;" horiz-adv-x="460" 
d="M363 758l-112 -106l-112 107l31 29l80 -79l83 79zM410 513h-269v-224h201v-47h-201v-195h269v-47h-318v560h318v-47z" />
    <glyph glyph-name="Ecircumflex" unicode="&#xca;" horiz-adv-x="460" 
d="M250 733l-80 -79l-31 29l112 107l112 -106l-30 -30zM410 513h-269v-224h201v-47h-201v-195h269v-47h-318v560h318v-47z" />
    <glyph glyph-name="Edieresis" unicode="&#xcb;" horiz-adv-x="460" 
d="M167 681c-22 0 -37 15 -37 37s15 37 37 37s37 -15 37 -37s-15 -37 -37 -37zM322 680c-22 0 -37 15 -37 37s15 37 37 37s37 -15 37 -37s-15 -37 -37 -37zM410 513h-269v-224h201v-47h-201v-195h269v-47h-318v560h318v-47z" />
    <glyph glyph-name="Edotaccent" unicode="&#x116;" horiz-adv-x="460" 
d="M250 658c-22 0 -39 16 -39 39s17 39 39 39c24 0 40 -16 40 -39s-16 -39 -40 -39zM410 513h-269v-224h201v-47h-201v-195h269v-47h-318v560h318v-47z" />
    <glyph glyph-name="Egrave" unicode="&#xc8;" horiz-adv-x="460" 
d="M285 690l-20 -33l-167 104l29 45zM410 513h-269v-224h201v-47h-201v-195h269v-47h-318v560h318v-47z" />
    <glyph glyph-name="Emacron" unicode="&#x112;" horiz-adv-x="460" 
d="M351 726v-42h-202v42h202zM410 513h-269v-224h201v-47h-201v-195h269v-47h-318v560h318v-47z" />
    <glyph glyph-name="Eogonek" unicode="&#x118;" horiz-adv-x="460" 
d="M410 513h-269v-224h201v-47h-201v-195h269v-47h-1c-38 -26 -72 -51 -97 -83c-46 -60 16 -109 73 -60l20 -27c-97 -75 -191 17 -122 103c25 31 47 47 75 67h-266v560h318v-47z" />
    <glyph glyph-name="F" unicode="F" horiz-adv-x="412" 
d="M410 513h-268v-229h187v-47h-187v-237h-50v560h318v-47z" />
    <glyph glyph-name="G" unicode="G" horiz-adv-x="575" 
d="M296 -5c-123 0 -233 90 -233 280v10c0 190 110 280 233 280c95 0 175 -64 199 -150l-47 -13c-18 66 -77 116 -152 116c-95 0 -183 -67 -183 -233v-10c0 -165 88 -232 182 -232c89 0 164 68 164 188v8h-172v45h224v-45c0 -154 -101 -244 -215 -244z" />
    <glyph glyph-name="Gbreve" unicode="&#x11e;" horiz-adv-x="575" 
d="M294 663c-50 0 -89 29 -115 65l33 27c11 -18 39 -49 82 -49c41 0 68 30 82 49l32 -27c-27 -36 -63 -65 -114 -65zM296 -5c-123 0 -233 90 -233 280v10c0 190 110 280 233 280c95 0 175 -64 199 -150l-47 -13c-18 66 -77 116 -152 116c-95 0 -183 -67 -183 -233v-10
c0 -165 88 -232 182 -232c89 0 164 68 164 188v8h-172v45h224v-45c0 -154 -101 -244 -215 -244z" />
    <glyph glyph-name="Gcommaaccent" unicode="&#x122;" horiz-adv-x="575" 
d="M296 -5c-123 0 -233 90 -233 280v10c0 190 110 280 233 280c95 0 175 -64 199 -150l-47 -13c-18 66 -77 116 -152 116c-95 0 -183 -67 -183 -233v-10c0 -165 88 -232 182 -232c89 0 164 68 164 188v8h-172v45h224v-45c0 -154 -101 -244 -215 -244zM287 -215l-49 6l33 169
l40 -4z" />
    <glyph glyph-name="Gdotaccent" unicode="&#x120;" horiz-adv-x="575" 
d="M293 650c-22 0 -39 16 -39 39s17 39 39 39c24 0 40 -16 40 -39s-16 -39 -40 -39zM296 -5c-123 0 -233 90 -233 280v10c0 190 110 280 233 280c95 0 175 -64 199 -150l-47 -13c-18 66 -77 116 -152 116c-95 0 -183 -67 -183 -233v-10c0 -165 88 -232 182 -232
c89 0 164 68 164 188v8h-172v45h224v-45c0 -154 -101 -244 -215 -244z" />
    <glyph glyph-name="H" unicode="H" horiz-adv-x="536" 
d="M393 560h50v-560h-50v235h-251v-235h-50v558l50 3v-277h251v276z" />
    <glyph glyph-name="Hbar" unicode="&#x126;" horiz-adv-x="536" 
d="M498 464v-38h-55v-426h-50v235h-251v-235h-50v426h-56v38h56v94l50 3v-97h251v96h50v-96h55zM393 284v142h-251v-142h251z" />
    <glyph glyph-name="I" unicode="I" horiz-adv-x="267" 
d="M158 563v-563h-50v560z" />
    <glyph glyph-name="IJ" unicode="&#x132;" horiz-adv-x="629" 
d="M108 0v560l50 3v-563h-50zM342 559l199 3v-380c0 -119 -53 -187 -150 -187c-37 0 -71 12 -90 24l19 38c14 -7 39 -13 66 -13c76 0 104 58 104 145l1 324h-149v46z" />
    <glyph glyph-name="Iacute" unicode="&#xcd;" horiz-adv-x="267" 
d="M117 650l-20 32l158 116l29 -45zM158 563v-563h-50v560z" />
    <glyph glyph-name="uni01CF" unicode="&#x1cf;" horiz-adv-x="267" 
d="M246 750l-112 -106l-112 107l31 29l80 -79l83 79zM108 0v560l50 3v-563h-50z" />
    <glyph glyph-name="Icircumflex" unicode="&#xce;" horiz-adv-x="267" 
d="M134 782l112 -106l-30 -30l-83 79l-80 -79l-31 29zM108 0v560l50 3v-563h-50z" />
    <glyph glyph-name="Idieresis" unicode="&#xcf;" horiz-adv-x="267" 
d="M50 673c-22 0 -37 15 -37 37s15 37 37 37s37 -15 37 -37s-15 -37 -37 -37zM205 672c-22 0 -37 15 -37 37s15 37 37 37s37 -15 37 -37s-15 -37 -37 -37zM158 563v-563h-50v560z" />
    <glyph glyph-name="Idotaccent" unicode="&#x130;" horiz-adv-x="267" 
d="M133 650c-22 0 -39 16 -39 39s17 39 39 39c24 0 40 -16 40 -39s-16 -39 -40 -39zM158 563v-563h-50v560z" />
    <glyph glyph-name="Igrave" unicode="&#xcc;" horiz-adv-x="267" 
d="M148 649l-167 104l29 45l158 -116zM158 563v-563h-50v560z" />
    <glyph glyph-name="Imacron" unicode="&#x12a;" horiz-adv-x="267" 
d="M32 676v42h202v-42h-202zM158 563v-563h-50v560z" />
    <glyph glyph-name="Iogonek" unicode="&#x12e;" horiz-adv-x="267" 
d="M108 560l50 3v-563h-1c-38 -26 -72 -51 -97 -83c-46 -60 16 -109 73 -60l20 -27c-97 -75 -191 17 -122 103c26 32 48 48 77 69v558z" />
    <glyph glyph-name="J" unicode="J" horiz-adv-x="362" 
d="M75 559l199 3v-380c0 -119 -53 -187 -150 -187c-37 0 -71 12 -90 24l19 38c14 -7 39 -13 66 -13c76 0 104 58 104 145l1 324h-149v46z" />
    <glyph glyph-name="K" unicode="K" horiz-adv-x="514" 
d="M436 0l-171 328l-123 -153v-175h-50v559l50 4v-311l253 308h58l-155 -192l195 -368h-57z" />
    <glyph glyph-name="Kcommaaccent" unicode="&#x136;" horiz-adv-x="514" 
d="M298 368l195 -368h-57l-171 328l-123 -153v-175h-50v559l50 4v-311l253 308h58zM210 -193l33 169l40 -4l-24 -171z" />
    <glyph glyph-name="L" unicode="L" horiz-adv-x="382" 
d="M142 47h207v-47h-257v558l50 3v-514z" />
    <glyph glyph-name="Lacute" unicode="&#x139;" horiz-adv-x="382" 
d="M269 753l-167 -103l-20 32l158 116zM142 47h207v-47h-257v558l50 3v-514z" />
    <glyph glyph-name="Lcaron" unicode="&#x13d;" horiz-adv-x="382" 
d="M358 558l-20 -208l-38 2l8 210zM142 561v-514h207v-47h-257v558z" />
    <glyph glyph-name="Lcommaaccent" unicode="&#x13b;" horiz-adv-x="382" 
d="M142 47h207v-47h-257v558l50 3v-514zM163 -201l33 169l40 -4l-24 -171z" />
    <glyph glyph-name="Ldot" unicode="&#x13f;" horiz-adv-x="377" 
d="M142 47h207v-47h-257v558l50 3v-514zM310 311c-22 0 -37 15 -37 37s15 37 37 37s37 -15 37 -37s-15 -37 -37 -37z" />
    <glyph glyph-name="Lslash" unicode="&#x141;" horiz-adv-x="382" 
d="M142 47h207v-47h-257v275l-72 -70l-30 30l102 100v223l50 3v-177l76 75l31 -31l-107 -104v-277z" />
    <glyph glyph-name="M" unicode="M" horiz-adv-x="701" 
d="M558 561l50 -4v-557h-50v459l-192 -352h-31l-193 356v-463h-50v557l52 4l207 -382z" />
    <glyph glyph-name="N" unicode="N" horiz-adv-x="584" 
d="M442 558h50v-558h-47l-303 475v-475h-50v557l51 3l299 -472v470z" />
    <glyph glyph-name="Nacute" unicode="&#x143;" horiz-adv-x="584" 
d="M433 747l-167 -103l-20 32l158 116zM442 558h50v-558h-47l-303 475v-475h-50v557l51 3l299 -472v470z" />
    <glyph glyph-name="Ncaron" unicode="&#x147;" horiz-adv-x="584" 
d="M395 744l-112 -106l-112 107l31 29l80 -79l83 79zM442 558h50v-558h-47l-303 475v-475h-50v557l51 3l299 -472v470z" />
    <glyph glyph-name="Ncommaaccent" unicode="&#x145;" horiz-adv-x="584" 
d="M442 558h50v-558h-47l-303 475v-475h-50v557l51 3l299 -472v470zM228 -209l33 169l40 -4l-24 -171z" />
    <glyph glyph-name="Eng" unicode="&#x14a;" horiz-adv-x="584" 
d="M442 558h50v-645c0 -86 -53 -128 -119 -128c-27 0 -48 7 -63 13l13 45c10 -4 20 -8 46 -8c41 1 73 26 73 86v84l-300 470v-475h-50v557l51 3l299 -472v470z" />
    <glyph glyph-name="Ntilde" unicode="&#xd1;" horiz-adv-x="584" 
d="M234 700c-17 0 -24 -18 -32 -37l-38 18c9 24 27 63 65 63c36 0 69 -40 99 -40c19 0 26 11 35 35l39 -17c-7 -20 -24 -63 -68 -63c-42 1 -70 41 -100 41zM442 558h50v-558h-47l-303 475v-475h-50v557l51 3l299 -472v470z" />
    <glyph glyph-name="O" unicode="O" horiz-adv-x="584" 
d="M292 -5c-115 0 -228 90 -228 276v18c0 186 113 276 228 276c114 0 228 -90 228 -276v-18c0 -186 -114 -276 -228 -276zM291 43c88 0 179 67 179 228v18c0 162 -91 229 -178 229s-178 -67 -178 -229v-18c0 -161 91 -228 177 -228z" />
    <glyph glyph-name="Oacute" unicode="&#xd3;" horiz-adv-x="584" 
d="M275 650l-20 32l158 116l29 -45zM292 -5c-115 0 -228 90 -228 276v18c0 186 113 276 228 276c114 0 228 -90 228 -276v-18c0 -186 -114 -276 -228 -276zM291 43c88 0 179 67 179 228v18c0 162 -91 229 -178 229s-178 -67 -178 -229v-18c0 -161 91 -228 177 -228z" />
    <glyph glyph-name="uni01D1" unicode="&#x1d1;" horiz-adv-x="584" 
d="M404 750l-112 -106l-112 107l31 29l80 -79l83 79zM292 565c114 0 228 -90 228 -276v-18c0 -186 -114 -276 -228 -276c-115 0 -228 90 -228 276v18c0 186 113 276 228 276zM470 271v18c0 162 -91 229 -178 229s-178 -67 -178 -229v-18c0 -161 91 -228 177 -228
c88 0 179 67 179 228z" />
    <glyph glyph-name="Ocircumflex" unicode="&#xd4;" horiz-adv-x="584" 
d="M291 725l-80 -79l-31 29l112 107l112 -106l-30 -30zM292 565c114 0 228 -90 228 -276v-18c0 -186 -114 -276 -228 -276c-115 0 -228 90 -228 276v18c0 186 113 276 228 276zM470 271v18c0 162 -91 229 -178 229s-178 -67 -178 -229v-18c0 -161 91 -228 177 -228
c88 0 179 67 179 228z" />
    <glyph glyph-name="Odieresis" unicode="&#xd6;" horiz-adv-x="584" 
d="M208 673c-22 0 -37 15 -37 37s15 37 37 37s37 -15 37 -37s-15 -37 -37 -37zM363 672c-22 0 -37 15 -37 37s15 37 37 37s37 -15 37 -37s-15 -37 -37 -37zM292 -5c-115 0 -228 90 -228 276v18c0 186 113 276 228 276c114 0 228 -90 228 -276v-18
c0 -186 -114 -276 -228 -276zM291 43c88 0 179 67 179 228v18c0 162 -91 229 -178 229s-178 -67 -178 -229v-18c0 -161 91 -228 177 -228z" />
    <glyph glyph-name="Ograve" unicode="&#xd2;" horiz-adv-x="584" 
d="M306 649l-167 104l29 45l158 -116zM292 -5c-115 0 -228 90 -228 276v18c0 186 113 276 228 276c114 0 228 -90 228 -276v-18c0 -186 -114 -276 -228 -276zM291 43c88 0 179 67 179 228v18c0 162 -91 229 -178 229s-178 -67 -178 -229v-18c0 -161 91 -228 177 -228z" />
    <glyph glyph-name="Ohungarumlaut" unicode="&#x150;" horiz-adv-x="584" 
d="M237 637l-40 1l11 196l48 -3zM367 636l-41 2l15 196l48 -4zM292 -5c-115 0 -228 90 -228 276v18c0 186 113 276 228 276c114 0 228 -90 228 -276v-18c0 -186 -114 -276 -228 -276zM291 43c88 0 179 67 179 228v18c0 162 -91 229 -178 229s-178 -67 -178 -229v-18
c0 -161 91 -228 177 -228z" />
    <glyph glyph-name="Omacron" unicode="&#x14c;" horiz-adv-x="584" 
d="M190 676v42h202v-42h-202zM292 -5c-115 0 -228 90 -228 276v18c0 186 113 276 228 276c114 0 228 -90 228 -276v-18c0 -186 -114 -276 -228 -276zM291 43c88 0 179 67 179 228v18c0 162 -91 229 -178 229s-178 -67 -178 -229v-18c0 -161 91 -228 177 -228z" />
    <glyph glyph-name="Oslash" unicode="&#xd8;" horiz-adv-x="584" 
d="M537 515l-58 -59c26 -43 41 -98 41 -167v-18c0 -186 -114 -276 -228 -276c-66 0 -131 29 -174 89l-59 -60l-30 29l66 68c-19 40 -31 90 -31 150v18c0 186 113 276 228 276c60 0 119 -25 163 -75l52 54zM114 271c0 -44 7 -81 19 -112l288 297c-34 43 -82 62 -129 62
c-87 0 -178 -67 -178 -229v-18zM470 289c0 53 -10 96 -26 130l-292 -299c35 -53 88 -77 139 -77c88 0 179 67 179 228v18z" />
    <glyph glyph-name="Otilde" unicode="&#xd5;" horiz-adv-x="584" 
d="M211 669l-38 18c9 24 27 63 65 63c36 0 69 -40 99 -40c19 0 26 11 35 35l39 -17c-7 -20 -24 -63 -68 -63c-42 1 -70 41 -100 41c-17 0 -24 -18 -32 -37zM292 -5c-115 0 -228 90 -228 276v18c0 186 113 276 228 276c114 0 228 -90 228 -276v-18
c0 -186 -114 -276 -228 -276zM291 43c88 0 179 67 179 228v18c0 162 -91 229 -178 229s-178 -67 -178 -229v-18c0 -161 91 -228 177 -228z" />
    <glyph glyph-name="OE" unicode="&#x152;" horiz-adv-x="854" 
d="M804 513h-269v-224h201v-47h-201v-195h269v-47h-318v123c-41 -86 -117 -128 -194 -128c-115 0 -228 90 -228 276v18c0 186 113 276 228 276c77 0 153 -42 194 -128v123h318v-47zM470 271v18c0 162 -91 229 -178 229s-178 -67 -178 -229v-18c0 -161 91 -228 177 -228
c88 0 179 67 179 228z" />
    <glyph glyph-name="P" unicode="P" horiz-adv-x="467" 
d="M243 564c80 0 183 -40 183 -194c0 -119 -90 -183 -172 -184h-111v-186h-51v559c54 3 97 4 151 5zM143 233h103c66 0 130 49 130 139c0 102 -59 143 -136 143c-35 0 -62 -1 -97 -3v-279z" />
    <glyph glyph-name="Thorn" unicode="&#xde;" horiz-adv-x="486" 
d="M262 507c110 13 177 -96 177 -223c0 -148 -83 -231 -181 -221c-37 4 -69 23 -100 52v-115h-50v560l50 3v-116c31 31 68 55 104 60zM254 108c79 -6 133 59 133 176c0 104 -51 188 -133 177c-32 -4 -66 -31 -96 -62v-237c32 -29 64 -52 96 -54z" />
    <glyph glyph-name="Q" unicode="Q" horiz-adv-x="587" 
d="M521 47l11 -47h-242c-115 0 -232 91 -232 276v13c0 185 117 276 232 276c114 0 233 -91 233 -276v-13c0 -112 -46 -187 -107 -229h105zM108 276c0 -157 95 -226 182 -226c88 0 183 69 183 226v13c0 158 -95 227 -183 227c-87 0 -182 -69 -182 -227v-13z" />
    <glyph glyph-name="R" unicode="R" horiz-adv-x="489" 
d="M426 374c0 -91 -47 -148 -105 -172l105 -202h-58l-98 189c-5 -1 -11 -1 -16 -1h-111v-188h-51v559c54 3 97 4 151 5c78 0 183 -41 183 -190zM246 235c66 0 130 45 130 141c0 99 -59 139 -136 139l-97 -3v-277h103z" />
    <glyph glyph-name="Racute" unicode="&#x154;" horiz-adv-x="489" 
d="M388 753l-167 -103l-20 32l158 116zM426 374c0 -91 -47 -148 -105 -172l105 -202h-58l-98 189c-5 -1 -11 -1 -16 -1h-111v-188h-51v559c54 3 97 4 151 5c78 0 183 -41 183 -190zM246 235c66 0 130 45 130 141c0 99 -59 139 -136 139l-97 -3v-277h103z" />
    <glyph glyph-name="Rcaron" unicode="&#x158;" horiz-adv-x="489" 
d="M350 750l-112 -106l-112 107l31 29l80 -79l83 79zM426 374c0 -91 -47 -148 -105 -172l105 -202h-58l-98 189c-5 -1 -11 -1 -16 -1h-111v-188h-51v559c54 3 97 4 151 5c78 0 183 -41 183 -190zM246 235c66 0 130 45 130 141c0 99 -59 139 -136 139l-97 -3v-277h103z" />
    <glyph glyph-name="Rcommaaccent" unicode="&#x156;" horiz-adv-x="489" 
d="M426 374c0 -91 -47 -148 -105 -172l105 -202h-58l-98 189c-5 -1 -11 -1 -16 -1h-111v-188h-51v559c54 3 97 4 151 5c78 0 183 -41 183 -190zM246 235c66 0 130 45 130 141c0 99 -59 139 -136 139l-97 -3v-277h103zM187 -209l33 169l40 -4l-24 -171z" />
    <glyph glyph-name="S" unicode="S" horiz-adv-x="468" 
d="M235 -5c-104 0 -165 75 -171 142l47 13c6 -53 50 -104 123 -104c78 0 118 45 118 102c0 141 -280 100 -280 276c0 80 73 141 165 141c89 0 157 -59 167 -134l-46 -13c-9 63 -63 98 -119 98c-73 0 -114 -50 -113 -93c2 -135 278 -94 278 -277c0 -78 -54 -151 -169 -151z
" />
    <glyph glyph-name="Sacute" unicode="&#x15a;" horiz-adv-x="468" 
d="M221 650l-20 32l158 116l29 -45zM235 -5c-104 0 -165 75 -171 142l47 13c6 -53 50 -104 123 -104c78 0 118 45 118 102c0 141 -280 100 -280 276c0 80 73 141 165 141c89 0 157 -59 167 -134l-46 -13c-9 63 -63 98 -119 98c-73 0 -114 -50 -113 -93
c2 -135 278 -94 278 -277c0 -78 -54 -151 -169 -151z" />
    <glyph glyph-name="Scaron" unicode="&#x160;" horiz-adv-x="468" 
d="M350 750l-112 -106l-112 107l31 29l80 -79l83 79zM126 423c2 -135 278 -94 278 -277c0 -78 -54 -151 -169 -151c-104 0 -165 75 -171 142l47 13c6 -53 50 -104 123 -104c78 0 118 45 118 102c0 141 -280 100 -280 276c0 80 73 141 165 141c89 0 157 -59 167 -134l-46 -13
c-9 63 -63 98 -119 98c-73 0 -114 -50 -113 -93z" />
    <glyph glyph-name="Scedilla" unicode="&#x15e;" horiz-adv-x="468" 
d="M126 423c2 -135 278 -94 278 -277c0 -74 -49 -143 -152 -150l-2 -40c62 10 107 -26 107 -76c0 -58 -43 -88 -94 -88c-53 0 -81 30 -88 45l24 21c7 -10 25 -30 63 -30c30 0 56 19 56 53c0 26 -22 48 -66 49c-15 0 -26 -1 -38 -1l1 67c-92 9 -145 78 -151 141l47 13
c6 -53 50 -104 123 -104c78 0 118 45 118 102c0 141 -280 100 -280 276c0 80 73 141 165 141c89 0 157 -59 167 -134l-46 -13c-9 63 -63 98 -119 98c-73 0 -114 -50 -113 -93z" />
    <glyph glyph-name="Scommaaccent" unicode="&#x218;" horiz-adv-x="468" 
d="M235 -5c-104 0 -165 75 -171 142l47 13c6 -53 50 -104 123 -104c78 0 118 45 118 102c0 141 -280 100 -280 276c0 80 73 141 165 141c89 0 157 -59 167 -134l-46 -13c-9 63 -63 98 -119 98c-73 0 -114 -50 -113 -93c2 -135 278 -94 278 -277c0 -78 -54 -151 -169 -151z
M229 -215l-49 6l33 169l40 -4z" />
    <glyph glyph-name="T" unicode="T" horiz-adv-x="366" 
d="M352 560v-48h-144v-512h-50v512h-144v48h338z" />
    <glyph glyph-name="Tbar" unicode="&#x166;" horiz-adv-x="366" 
d="M283 718v-42h-202v42h202zM352 560v-48h-144v-512h-50v512h-144v48h338z" />
    <glyph glyph-name="Tcaron" unicode="&#x164;" horiz-adv-x="366" 
d="M295 750l-112 -106l-112 107l31 29l80 -79l83 79zM352 560v-48h-144v-512h-50v512h-144v48h338z" />
    <glyph glyph-name="uni0162" unicode="&#x162;" horiz-adv-x="366" 
d="M208 0h-5l-3 -44c62 10 107 -26 107 -76c0 -58 -43 -88 -94 -88c-53 0 -81 30 -88 45l24 21c7 -10 25 -30 63 -30c30 0 56 19 56 53c0 26 -22 48 -66 49c-15 0 -26 -1 -38 -1l1 71h-7v512h-144v48h338v-48h-144v-512z" />
    <glyph glyph-name="uni021A" unicode="&#x21a;" horiz-adv-x="366" 
d="M352 560v-48h-144v-512h-50v512h-144v48h338zM130 -209l33 169l40 -4l-24 -171z" />
    <glyph glyph-name="U" unicode="U" horiz-adv-x="568" 
d="M284 -5c-114 0 -199 85 -198 217l3 346l48 3l-2 -347c0 -102 63 -168 149 -168c90 0 148 66 148 168v346h49l1 -348c0 -132 -81 -217 -198 -217z" />
    <glyph glyph-name="Uacute" unicode="&#xda;" horiz-adv-x="568" 
d="M267 634l-20 32l158 116l29 -45zM284 -5c-114 0 -199 85 -198 217l3 346l48 3l-2 -347c0 -102 63 -168 149 -168c90 0 148 66 148 168v346h49l1 -348c0 -132 -81 -217 -198 -217z" />
    <glyph glyph-name="uni01D3" unicode="&#x1d3;" horiz-adv-x="568" 
d="M396 734l-112 -106l-112 107l31 29l80 -79l83 79zM481 560l1 -348c0 -132 -81 -217 -198 -217c-114 0 -199 85 -198 217l3 346l48 3l-2 -347c0 -102 63 -168 149 -168c90 0 148 66 148 168v346h49z" />
    <glyph glyph-name="Ucircumflex" unicode="&#xdb;" horiz-adv-x="568" 
d="M283 709l-80 -79l-31 29l112 107l112 -106l-30 -30zM481 560l1 -348c0 -132 -81 -217 -198 -217c-114 0 -199 85 -198 217l3 346l48 3l-2 -347c0 -102 63 -168 149 -168c90 0 148 66 148 168v346h49z" />
    <glyph glyph-name="Udieresis" unicode="&#xdc;" horiz-adv-x="568" 
d="M200 657c-22 0 -37 15 -37 37s15 37 37 37s37 -15 37 -37s-15 -37 -37 -37zM355 656c-22 0 -37 15 -37 37s15 37 37 37s37 -15 37 -37s-15 -37 -37 -37zM284 -5c-114 0 -199 85 -198 217l3 346l48 3l-2 -347c0 -102 63 -168 149 -168c90 0 148 66 148 168v346h49l1 -348
c0 -132 -81 -217 -198 -217z" />
    <glyph glyph-name="Ugrave" unicode="&#xd9;" horiz-adv-x="568" 
d="M298 633l-167 104l29 45l158 -116zM284 -5c-114 0 -199 85 -198 217l3 346l48 3l-2 -347c0 -102 63 -168 149 -168c90 0 148 66 148 168v346h49l1 -348c0 -132 -81 -217 -198 -217z" />
    <glyph glyph-name="Uhungarumlaut" unicode="&#x170;" horiz-adv-x="568" 
d="M229 621l-40 1l11 196l48 -3zM359 620l-41 2l15 196l48 -4zM284 -5c-114 0 -199 85 -198 217l3 346l48 3l-2 -347c0 -102 63 -168 149 -168c90 0 148 66 148 168v346h49l1 -348c0 -132 -81 -217 -198 -217z" />
    <glyph glyph-name="Umacron" unicode="&#x16a;" horiz-adv-x="568" 
d="M182 660v42h202v-42h-202zM284 -5c-114 0 -199 85 -198 217l3 346l48 3l-2 -347c0 -102 63 -168 149 -168c90 0 148 66 148 168v346h49l1 -348c0 -132 -81 -217 -198 -217z" />
    <glyph glyph-name="Uogonek" unicode="&#x172;" horiz-adv-x="568" 
d="M357 8c-34 -24 -64 -48 -87 -77c-46 -60 16 -109 73 -60l20 -27c-97 -75 -191 17 -122 103c17 21 33 35 49 48h-6c-114 0 -199 85 -198 217l3 346l48 3l-2 -347c0 -102 63 -168 149 -168c90 0 148 66 148 168v346h49l1 -348c0 -102 -49 -176 -125 -204z" />
    <glyph glyph-name="Uring" unicode="&#x16e;" horiz-adv-x="568" 
d="M285 626c-41 0 -74 34 -74 73c0 41 33 73 74 73c39 0 71 -32 71 -73c0 -39 -32 -73 -71 -73zM284 663c21 0 35 16 35 36c0 21 -14 38 -35 38c-20 0 -36 -17 -36 -38c0 -20 16 -36 36 -36zM284 -5c-114 0 -199 85 -198 217l3 346l48 3l-2 -347c0 -102 63 -168 149 -168
c90 0 148 66 148 168v346h49l1 -348c0 -132 -81 -217 -198 -217z" />
    <glyph glyph-name="V" unicode="V" horiz-adv-x="460" 
d="M392 562l51 -3l-188 -559h-50l-188 559l51 4l162 -482z" />
    <glyph glyph-name="W" unicode="W" horiz-adv-x="682" 
d="M609 562l50 -3l-135 -559h-46l-137 448l-137 -448h-46l-135 559l50 3l113 -469l135 449h40l135 -450z" />
    <glyph glyph-name="Wacute" unicode="&#x1e82;" horiz-adv-x="682" 
d="M492 753l-167 -103l-20 32l158 116zM609 562l50 -3l-135 -559h-46l-137 448l-137 -448h-46l-135 559l50 3l113 -469l135 449h40l135 -450z" />
    <glyph glyph-name="Wcircumflex" unicode="&#x174;" horiz-adv-x="682" 
d="M341 725l-80 -79l-31 29l112 107l112 -106l-30 -30zM609 562l50 -3l-135 -559h-46l-137 448l-137 -448h-46l-135 559l50 3l113 -469l135 449h40l135 -450z" />
    <glyph glyph-name="Wdieresis" unicode="&#x1e84;" horiz-adv-x="682" 
d="M258 673c-22 0 -37 15 -37 37s15 37 37 37s37 -15 37 -37s-15 -37 -37 -37zM413 672c-22 0 -37 15 -37 37s15 37 37 37s37 -15 37 -37s-15 -37 -37 -37zM609 562l50 -3l-135 -559h-46l-137 448l-137 -448h-46l-135 559l50 3l113 -469l135 449h40l135 -450z" />
    <glyph glyph-name="Wgrave" unicode="&#x1e80;" horiz-adv-x="682" 
d="M376 682l-20 -33l-167 104l29 45zM609 562l50 -3l-135 -559h-46l-137 448l-137 -448h-46l-135 559l50 3l113 -469l135 449h40l135 -450z" />
    <glyph glyph-name="X" unicode="X" horiz-adv-x="506" 
d="M483 0h-57l-173 247l-173 -247h-57l199 286l-189 273l56 2l164 -237l166 241l56 -2l-192 -278z" />
    <glyph glyph-name="Y" unicode="Y" horiz-adv-x="422" 
d="M405 559l-169 -321v-238h-50v238l-170 321l51 3l143 -273h2l142 273z" />
    <glyph glyph-name="Yacute" unicode="&#xdd;" horiz-adv-x="422" 
d="M361 735l-167 -103l-20 32l158 116zM405 559l-169 -321v-238h-50v238l-170 321l51 3l143 -273h2l142 273z" />
    <glyph glyph-name="Ycircumflex" unicode="&#x176;" horiz-adv-x="422" 
d="M210 707l-80 -79l-31 29l112 107l112 -106l-30 -30zM405 559l-169 -321v-238h-50v238l-170 321l51 3l143 -273h2l142 273z" />
    <glyph glyph-name="Ydieresis" unicode="&#x178;" horiz-adv-x="422" 
d="M127 655c-22 0 -37 15 -37 37s15 37 37 37s37 -15 37 -37s-15 -37 -37 -37zM282 654c-22 0 -37 15 -37 37s15 37 37 37s37 -15 37 -37s-15 -37 -37 -37zM405 559l-169 -321v-238h-50v238l-170 321l51 3l143 -273h2l142 273z" />
    <glyph glyph-name="Ygrave" unicode="&#x1ef2;" horiz-adv-x="422" 
d="M245 664l-20 -33l-167 104l29 45zM405 559l-169 -321v-238h-50v238l-170 321l51 3l143 -273h2l142 273z" />
    <glyph glyph-name="Z" unicode="Z" horiz-adv-x="414" 
d="M88 46h291v-46h-345v51l292 462h-291v45h343v-53z" />
    <glyph glyph-name="Zacute" unicode="&#x179;" horiz-adv-x="414" 
d="M357 753l-167 -103l-20 32l158 116zM88 46h291v-46h-345v51l292 462h-291v45h343v-53z" />
    <glyph glyph-name="Zcaron" unicode="&#x17d;" horiz-adv-x="414" 
d="M319 750l-112 -106l-112 107l31 29l80 -79l83 79zM88 46h291v-46h-345v51l292 462h-291v45h343v-53z" />
    <glyph glyph-name="Zdotaccent" unicode="&#x17b;" horiz-adv-x="414" 
d="M206 650c-22 0 -39 16 -39 39s17 39 39 39c24 0 40 -16 40 -39s-16 -39 -40 -39zM88 46h291v-46h-345v51l292 462h-291v45h343v-53z" />
    <glyph glyph-name="B.ss01" horiz-adv-x="515" 
d="M100 0v556c14 1 161 9 174 9c94 4 156 -56 156 -142c0 -68 -29 -102 -58 -123c52 -17 95 -68 95 -142c0 -102 -79 -158 -166 -158h-201zM151 312h127c69 0 101 50 101 107c0 61 -50 98 -102 98c-42 -2 -85 -5 -126 -7v-198zM151 49h142c69 0 121 44 121 113
c0 58 -36 105 -107 105h-156v-218z" />
    <glyph glyph-name="D.ss01" horiz-adv-x="554" 
d="M100 0v557c51 3 104 5 151 8c98 5 239 -72 239 -287c0 -249 -170 -278 -249 -278h-141zM151 50h90c113 0 198 65 198 228c0 164 -101 242 -186 237c-34 -3 -67 -4 -102 -7v-458z" />
    <glyph glyph-name="P.ss01" horiz-adv-x="479" 
d="M259 564c74 0 175 -41 175 -193c0 -119 -90 -185 -172 -186h-111v-185h-51v557c55 3 110 5 159 7zM151 233h103c66 0 130 52 130 140c0 100 -60 141 -128 141c-36 -2 -70 -3 -105 -5v-276z" />
    <glyph glyph-name="R.ss01" horiz-adv-x="485" 
d="M434 371c0 -88 -49 -147 -107 -172l105 -199h-58l-98 186c-5 -1 -9 -1 -14 -1h-111v-185h-51v557c55 3 110 5 159 7c73 0 175 -41 175 -193zM254 233c66 0 130 51 130 140c0 100 -60 141 -128 141c-36 -2 -70 -3 -105 -5v-276h103z" />
    <glyph glyph-name="a" unicode="a" horiz-adv-x="486" 
d="M393 137c0 -54 10 -88 68 -88v-47c-63 -5 -99 18 -113 70c-32 -34 -67 -65 -113 -72c-110 -17 -186 76 -186 222c0 133 77 251 200 222c38 -9 67 -38 95 -70v35l1 35l49 -3zM234 45c40 5 71 28 109 66v14l1 203c-29 33 -60 63 -97 71c-87 18 -146 -66 -146 -177
c0 -117 54 -184 133 -177z" />
    <glyph glyph-name="aacute" unicode="&#xe1;" horiz-adv-x="486" 
d="M396 631l-167 -103l-20 32l158 116zM393 137c0 -54 10 -88 68 -88v-47c-63 -5 -99 18 -113 70c-32 -34 -67 -65 -113 -72c-110 -17 -186 76 -186 222c0 133 77 251 200 222c38 -9 67 -38 95 -70v35l1 35l49 -3zM234 45c40 5 71 28 109 66v14l1 203c-29 33 -60 63 -97 71
c-87 18 -146 -66 -146 -177c0 -117 54 -184 133 -177z" />
    <glyph glyph-name="abreve" unicode="&#x103;" horiz-adv-x="486" 
d="M246 541c-50 0 -89 29 -115 65l33 27c11 -18 39 -49 82 -49c41 0 68 30 82 49l32 -27c-27 -36 -63 -65 -114 -65zM393 137c0 -54 10 -88 68 -88v-47c-63 -5 -99 18 -113 70c-32 -34 -67 -65 -113 -72c-110 -17 -186 76 -186 222c0 133 77 251 200 222
c38 -9 67 -38 95 -70v35l1 35l49 -3zM234 45c40 5 71 28 109 66v14l1 203c-29 33 -60 63 -97 71c-87 18 -146 -66 -146 -177c0 -117 54 -184 133 -177z" />
    <glyph glyph-name="uni01CE" unicode="&#x1ce;" horiz-adv-x="486" 
d="M358 628l-112 -106l-112 107l31 29l80 -79l83 79zM393 137c0 -54 10 -88 68 -88v-47c-63 -5 -99 18 -113 70c-32 -34 -67 -65 -113 -72c-110 -17 -186 76 -186 222c0 133 77 251 200 222c38 -9 67 -38 95 -70v35l1 35l49 -3zM234 45c40 5 71 28 109 66v14l1 203
c-29 33 -60 63 -97 71c-87 18 -146 -66 -146 -177c0 -117 54 -184 133 -177z" />
    <glyph glyph-name="acircumflex" unicode="&#xe2;" horiz-adv-x="486" 
d="M245 603l-80 -79l-31 29l112 107l112 -106l-30 -30zM393 137c0 -54 10 -88 68 -88v-47c-63 -5 -99 18 -113 70c-32 -34 -67 -65 -113 -72c-110 -17 -186 76 -186 222c0 133 77 251 200 222c38 -9 67 -38 95 -70v35l1 35l49 -3zM234 45c40 5 71 28 109 66v14l1 203
c-29 33 -60 63 -97 71c-87 18 -146 -66 -146 -177c0 -117 54 -184 133 -177z" />
    <glyph glyph-name="adieresis" unicode="&#xe4;" horiz-adv-x="486" 
d="M162 551c-22 0 -37 15 -37 37s15 37 37 37s37 -15 37 -37s-15 -37 -37 -37zM317 550c-22 0 -37 15 -37 37s15 37 37 37s37 -15 37 -37s-15 -37 -37 -37zM393 137c0 -54 10 -88 68 -88v-47c-63 -5 -99 18 -113 70c-32 -34 -67 -65 -113 -72c-110 -17 -186 76 -186 222
c0 133 77 251 200 222c38 -9 67 -38 95 -70v35l1 35l49 -3zM234 45c40 5 71 28 109 66v14l1 203c-29 33 -60 63 -97 71c-87 18 -146 -66 -146 -177c0 -117 54 -184 133 -177z" />
    <glyph glyph-name="agrave" unicode="&#xe0;" horiz-adv-x="486" 
d="M280 560l-20 -33l-167 104l29 45zM393 137c0 -54 10 -88 68 -88v-47c-63 -5 -99 18 -113 70c-32 -34 -67 -65 -113 -72c-110 -17 -186 76 -186 222c0 133 77 251 200 222c38 -9 67 -38 95 -70v35l1 35l49 -3zM234 45c40 5 71 28 109 66v14l1 203c-29 33 -60 63 -97 71
c-87 18 -146 -66 -146 -177c0 -117 54 -184 133 -177z" />
    <glyph glyph-name="amacron" unicode="&#x101;" horiz-adv-x="486" 
d="M346 596v-42h-202v42h202zM393 137c0 -54 10 -88 68 -88v-47c-63 -5 -99 18 -113 70c-32 -34 -67 -65 -113 -72c-110 -17 -186 76 -186 222c0 133 77 251 200 222c38 -9 67 -38 95 -70v35l1 35l49 -3zM234 45c40 5 71 28 109 66v14l1 203c-29 33 -60 63 -97 71
c-87 18 -146 -66 -146 -177c0 -117 54 -184 133 -177z" />
    <glyph glyph-name="aogonek" unicode="&#x105;" horiz-adv-x="486" 
d="M393 137c0 -54 10 -88 68 -88v-47h-3c-37 -25 -71 -51 -95 -82c-46 -60 16 -109 73 -60l20 -27c-97 -75 -191 17 -122 103c26 32 49 48 78 69c-34 9 -54 31 -64 67c-32 -34 -67 -65 -113 -72c-110 -17 -186 76 -186 222c0 133 77 251 200 222c38 -9 67 -38 95 -70v35
l1 35l49 -3zM234 45c40 5 71 28 109 66v14l1 203c-29 33 -60 63 -97 71c-87 18 -146 -66 -146 -177c0 -117 54 -184 133 -177z" />
    <glyph glyph-name="aring" unicode="&#xe5;" horiz-adv-x="486" 
d="M247 520c-41 0 -74 34 -74 73c0 41 33 73 74 73c39 0 71 -32 71 -73c0 -39 -32 -73 -71 -73zM246 631c-20 0 -36 -17 -36 -38c0 -20 16 -36 36 -36c21 0 35 16 35 36c0 21 -14 38 -35 38zM393 137c0 -54 10 -88 68 -88v-47c-63 -5 -99 18 -113 70
c-32 -34 -67 -65 -113 -72c-110 -17 -186 76 -186 222c0 133 77 251 200 222c38 -9 67 -38 95 -70v35l1 35l49 -3zM234 45c40 5 71 28 109 66v14l1 203c-29 33 -60 63 -97 71c-87 18 -146 -66 -146 -177c0 -117 54 -184 133 -177z" />
    <glyph glyph-name="atilde" unicode="&#xe3;" horiz-adv-x="486" 
d="M197 584c-17 0 -24 -18 -32 -37l-38 18c9 24 27 63 65 63c36 0 69 -40 99 -40c19 0 26 11 35 35l39 -17c-7 -20 -24 -63 -68 -63c-42 1 -70 41 -100 41zM393 137c0 -54 10 -88 68 -88v-47c-63 -5 -99 18 -113 70c-32 -34 -67 -65 -113 -72c-110 -17 -186 76 -186 222
c0 133 77 251 200 222c38 -9 67 -38 95 -70v35l1 35l49 -3zM234 45c40 5 71 28 109 66v14l1 203c-29 33 -60 63 -97 71c-87 18 -146 -66 -146 -177c0 -117 54 -184 133 -177z" />
    <glyph glyph-name="ae" unicode="&#xe6;" horiz-adv-x="814" 
d="M760 208l-328 1v-8c2 -94 58 -161 141 -161c56 0 102 29 130 84l45 -14c-32 -70 -95 -115 -174 -115c-85 0 -149 53 -176 134v-129h-48v69c-32 -32 -66 -62 -111 -69c-110 -17 -186 76 -186 222c0 133 77 251 200 222c39 -9 68 -39 97 -73v71l48 -3v-130
c28 82 94 136 176 136c103 0 187 -84 187 -204c0 -15 0 -23 -1 -33zM238 45c41 5 73 30 112 69v212c-30 33 -61 65 -99 73c-87 18 -146 -66 -146 -177c0 -117 54 -184 133 -177zM574 401c-78 0 -140 -71 -141 -148h279c0 88 -64 148 -138 148z" />
    <glyph glyph-name="b" unicode="b" horiz-adv-x="479" 
d="M254 445c110 13 177 -96 177 -223c0 -148 -83 -231 -181 -221c-41 4 -77 28 -111 63v-25l-2 -39h-48v597l50 2v-225c33 37 75 65 115 71zM246 46c79 -6 133 59 133 176c0 104 -51 188 -133 177c-35 -4 -75 -38 -107 -74v-215c35 -34 72 -61 107 -64z" />
    <glyph glyph-name="c" unicode="c" horiz-adv-x="452" 
d="M241 -5c-107 0 -192 92 -192 217v16c0 125 85 217 192 217c82 0 140 -58 161 -108l-41 -23c-12 34 -55 84 -120 84c-78 0 -143 -69 -143 -170v-16c0 -100 65 -169 142 -169c66 0 109 48 122 83l40 -24c-22 -51 -80 -107 -161 -107z" />
    <glyph glyph-name="cacute" unicode="&#x107;" horiz-adv-x="452" 
d="M220 534l-20 32l158 116l29 -45zM241 -5c-107 0 -192 92 -192 217v16c0 125 85 217 192 217c82 0 140 -58 161 -108l-41 -23c-12 34 -55 84 -120 84c-78 0 -143 -69 -143 -170v-16c0 -100 65 -169 142 -169c66 0 109 48 122 83l40 -24c-22 -51 -80 -107 -161 -107z" />
    <glyph glyph-name="ccaron" unicode="&#x10d;" horiz-adv-x="452" 
d="M349 634l-112 -106l-112 107l31 29l80 -79l83 79zM240 43c66 0 109 48 122 83l40 -24c-22 -51 -80 -107 -161 -107c-107 0 -192 92 -192 217v16c0 125 85 217 192 217c82 0 140 -58 161 -108l-41 -23c-12 34 -55 84 -120 84c-78 0 -143 -69 -143 -170v-16
c0 -100 65 -169 142 -169z" />
    <glyph glyph-name="ccedilla" unicode="&#xe7;" horiz-adv-x="452" 
d="M240 43c66 0 109 48 122 83l40 -24c-21 -50 -77 -104 -155 -107l-2 -38c62 10 107 -26 107 -76c0 -58 -43 -88 -94 -88c-53 0 -81 30 -88 45l24 21c7 -10 25 -30 63 -30c30 0 56 19 56 53c0 26 -22 48 -66 49c-15 0 -26 -1 -38 -1l1 68c-92 16 -161 101 -161 214v16
c0 125 85 217 192 217c82 0 140 -58 161 -108l-41 -23c-12 34 -55 84 -120 84c-78 0 -143 -69 -143 -170v-16c0 -100 65 -169 142 -169z" />
    <glyph glyph-name="cdotaccent" unicode="&#x10b;" horiz-adv-x="452" 
d="M236 534c-22 0 -39 16 -39 39s17 39 39 39c24 0 40 -16 40 -39s-16 -39 -40 -39zM241 -5c-107 0 -192 92 -192 217v16c0 125 85 217 192 217c82 0 140 -58 161 -108l-41 -23c-12 34 -55 84 -120 84c-78 0 -143 -69 -143 -170v-16c0 -100 65 -169 142 -169
c66 0 109 48 122 83l40 -24c-22 -51 -80 -107 -161 -107z" />
    <glyph glyph-name="d" unicode="d" horiz-adv-x="483" 
d="M344 597l50 -3v-594h-47l-3 52v15c-31 -32 -65 -60 -109 -67c-110 -17 -186 76 -186 222c0 133 77 251 200 222c38 -9 67 -38 95 -70v223zM234 45c40 5 72 29 110 67v216c-29 33 -60 63 -97 71c-87 18 -146 -66 -146 -177c0 -117 54 -184 133 -177z" />
    <glyph glyph-name="eth" unicode="&#xf0;" horiz-adv-x="512" 
d="M458 329c0 -100 -25 -234 -116 -298c-30 -23 -67 -36 -106 -36h-7h-3c-105 6 -185 99 -185 225c0 130 87 223 193 223c81 0 150 -58 177 -142c1 9 1 18 1 26c0 121 -41 217 -105 285l-67 -62l-23 28l64 59c-29 25 -62 45 -97 60l22 36c39 -16 76 -38 108 -66l53 48
l23 -27l-50 -46c72 -75 118 -183 118 -313zM91 220c0 -108 65 -181 146 -181c83 0 148 73 148 181c0 111 -65 184 -147 184s-147 -73 -147 -184z" />
    <glyph glyph-name="dcaron" unicode="&#x10f;" horiz-adv-x="483" 
d="M486 601l50 -4l-20 -208l-38 2zM344 374v223l50 -3v-594h-47l-3 52v15c-31 -32 -65 -60 -109 -67c-110 -17 -186 76 -186 222c0 133 77 251 200 222c38 -9 67 -38 95 -70zM234 45c40 5 72 29 110 67v216c-29 33 -60 63 -97 71c-87 18 -146 -66 -146 -177
c0 -117 54 -184 133 -177z" />
    <glyph glyph-name="dcroat" unicode="&#x111;" horiz-adv-x="467" 
d="M438 535v-43h-44v-492h-47l-3 52v15c-31 -32 -65 -60 -109 -67c-110 -17 -186 76 -186 222c0 133 77 251 200 222c38 -9 67 -38 95 -70v118h-98v43h98v62l50 -3v-59h44zM234 45c40 5 72 29 110 67v216c-29 33 -60 63 -97 71c-87 18 -146 -66 -146 -177
c0 -117 54 -184 133 -177z" />
    <glyph glyph-name="e" unicode="e" horiz-adv-x="484" 
d="M244 -5c-114 0 -190 95 -190 225c0 129 81 225 190 225c103 0 187 -84 187 -204c0 -15 0 -23 -1 -33l-328 1v-8c2 -94 58 -161 141 -161c56 0 102 29 130 84l45 -14c-32 -70 -95 -115 -174 -115zM103 253h279c0 88 -64 148 -138 148c-78 0 -140 -71 -141 -148z" />
    <glyph glyph-name="eacute" unicode="&#xe9;" horiz-adv-x="484" 
d="M225 526l-20 32l158 116l29 -45zM244 -5c-114 0 -190 95 -190 225c0 129 81 225 190 225c103 0 187 -84 187 -204c0 -15 0 -23 -1 -33l-328 1v-8c2 -94 58 -161 141 -161c56 0 102 29 130 84l45 -14c-32 -70 -95 -115 -174 -115zM103 253h279c0 88 -64 148 -138 148
c-78 0 -140 -71 -141 -148z" />
    <glyph glyph-name="ecaron" unicode="&#x11b;" horiz-adv-x="484" 
d="M354 626l-112 -106l-112 107l31 29l80 -79l83 79zM430 208l-328 1v-8c2 -94 58 -161 141 -161c56 0 102 29 130 84l45 -14c-32 -70 -95 -115 -174 -115c-114 0 -190 95 -190 225c0 129 81 225 190 225c103 0 187 -84 187 -204c0 -15 0 -23 -1 -33zM244 401
c-78 0 -140 -71 -141 -148h279c0 88 -64 148 -138 148z" />
    <glyph glyph-name="ecircumflex" unicode="&#xea;" horiz-adv-x="484" 
d="M241 601l-80 -79l-31 29l112 107l112 -106l-30 -30zM430 208l-328 1v-8c2 -94 58 -161 141 -161c56 0 102 29 130 84l45 -14c-32 -70 -95 -115 -174 -115c-114 0 -190 95 -190 225c0 129 81 225 190 225c103 0 187 -84 187 -204c0 -15 0 -23 -1 -33zM244 401
c-78 0 -140 -71 -141 -148h279c0 88 -64 148 -138 148z" />
    <glyph glyph-name="edieresis" unicode="&#xeb;" horiz-adv-x="484" 
d="M158 549c-22 0 -37 15 -37 37s15 37 37 37s37 -15 37 -37s-15 -37 -37 -37zM313 548c-22 0 -37 15 -37 37s15 37 37 37s37 -15 37 -37s-15 -37 -37 -37zM244 -5c-114 0 -190 95 -190 225c0 129 81 225 190 225c103 0 187 -84 187 -204c0 -15 0 -23 -1 -33l-328 1v-8
c2 -94 58 -161 141 -161c56 0 102 29 130 84l45 -14c-32 -70 -95 -115 -174 -115zM103 253h279c0 88 -64 148 -138 148c-78 0 -140 -71 -141 -148z" />
    <glyph glyph-name="edotaccent" unicode="&#x117;" horiz-adv-x="484" 
d="M241 526c-22 0 -39 16 -39 39s17 39 39 39c24 0 40 -16 40 -39s-16 -39 -40 -39zM244 -5c-114 0 -190 95 -190 225c0 129 81 225 190 225c103 0 187 -84 187 -204c0 -15 0 -23 -1 -33l-328 1v-8c2 -94 58 -161 141 -161c56 0 102 29 130 84l45 -14
c-32 -70 -95 -115 -174 -115zM103 253h279c0 88 -64 148 -138 148c-78 0 -140 -71 -141 -148z" />
    <glyph glyph-name="egrave" unicode="&#xe8;" horiz-adv-x="484" 
d="M256 525l-167 104l29 45l158 -116zM244 -5c-114 0 -190 95 -190 225c0 129 81 225 190 225c103 0 187 -84 187 -204c0 -15 0 -23 -1 -33l-328 1v-8c2 -94 58 -161 141 -161c56 0 102 29 130 84l45 -14c-32 -70 -95 -115 -174 -115zM103 253h279c0 88 -64 148 -138 148
c-78 0 -140 -71 -141 -148z" />
    <glyph glyph-name="emacron" unicode="&#x113;" horiz-adv-x="484" 
d="M140 552v42h202v-42h-202zM244 -5c-114 0 -190 95 -190 225c0 129 81 225 190 225c103 0 187 -84 187 -204c0 -15 0 -23 -1 -33l-328 1v-8c2 -94 58 -161 141 -161c56 0 102 29 130 84l45 -14c-32 -70 -95 -115 -174 -115zM103 253h279c0 88 -64 148 -138 148
c-78 0 -140 -71 -141 -148z" />
    <glyph glyph-name="eogonek" unicode="&#x119;" horiz-adv-x="484" 
d="M430 208l-328 1v-8c2 -94 58 -161 141 -161c56 0 102 29 130 84l45 -14c-22 -49 -59 -85 -106 -103c-33 -23 -62 -46 -84 -74c-46 -60 16 -109 73 -60l20 -27c-97 -75 -191 17 -122 103c16 20 31 33 47 46h-2c-114 0 -190 95 -190 225c0 129 81 225 190 225
c103 0 187 -84 187 -204c0 -15 0 -23 -1 -33zM244 401c-78 0 -140 -71 -141 -148h279c0 88 -64 148 -138 148z" />
    <glyph glyph-name="f" unicode="f" horiz-adv-x="271" 
d="M224 558c-39 -1 -71 -32 -71 -74v-62h98v-44h-98v-378h-50v378h-58v44h58v64c0 70 53 117 118 117c23 0 47 -5 62 -11l-12 -41c-11 4 -22 7 -47 7z" />
    <glyph glyph-name="g" unicode="g" horiz-adv-x="498" 
d="M462 432l-3 -47l-97 7c41 -40 68 -99 68 -164c0 -54 -17 -102 -45 -139c23 -28 41 -64 41 -112c-1 -105 -78 -183 -192 -183c-87 0 -147 48 -173 86l37 25c20 -26 68 -64 136 -64c84 0 141 61 141 136c0 37 -10 59 -23 78c-32 -25 -71 -40 -113 -40
c-106 0 -192 93 -192 215c0 120 86 215 192 215h1c5 0 11 0 16 -1zM383 230c0 98 -65 170 -144 170s-143 -72 -143 -170c0 -97 64 -169 142 -169c80 0 145 72 145 169z" />
    <glyph glyph-name="gbreve" unicode="&#x11f;" horiz-adv-x="498" 
d="M245 539c-50 0 -89 29 -115 65l33 27c11 -18 39 -49 82 -49c41 0 68 30 82 49l32 -27c-27 -36 -63 -65 -114 -65zM462 432l-3 -47l-97 7c41 -40 68 -99 68 -164c0 -54 -17 -102 -45 -139c23 -28 41 -64 41 -112c-1 -105 -78 -183 -192 -183c-87 0 -147 48 -173 86l37 25
c20 -26 68 -64 136 -64c84 0 141 61 141 136c0 37 -10 59 -23 78c-32 -25 -71 -40 -113 -40c-106 0 -192 93 -192 215c0 120 86 215 192 215h1c5 0 11 0 16 -1zM383 230c0 98 -65 170 -144 170s-143 -72 -143 -170c0 -97 64 -169 142 -169c80 0 145 72 145 169z" />
    <glyph glyph-name="gcommaaccent" unicode="&#x123;" horiz-adv-x="498" 
d="M282 683l-34 -177l-41 4l26 179zM462 432l-3 -47l-97 7c41 -40 68 -99 68 -164c0 -54 -17 -102 -45 -139c23 -28 41 -64 41 -112c-1 -105 -78 -183 -192 -183c-87 0 -147 48 -173 86l37 25c20 -26 68 -64 136 -64c84 0 141 61 141 136c0 37 -10 59 -23 78
c-32 -25 -71 -40 -113 -40c-106 0 -192 93 -192 215c0 120 86 215 192 215h1c5 0 11 0 16 -1zM383 230c0 98 -65 170 -144 170s-143 -72 -143 -170c0 -97 64 -169 142 -169c80 0 145 72 145 169z" />
    <glyph glyph-name="gdotaccent" unicode="&#x121;" horiz-adv-x="498" 
d="M244 526c-22 0 -39 16 -39 39s17 39 39 39c24 0 40 -16 40 -39s-16 -39 -40 -39zM462 432l-3 -47l-97 7c41 -40 68 -99 68 -164c0 -54 -17 -102 -45 -139c23 -28 41 -64 41 -112c-1 -105 -78 -183 -192 -183c-87 0 -147 48 -173 86l37 25c20 -26 68 -64 136 -64
c84 0 141 61 141 136c0 37 -10 59 -23 78c-32 -25 -71 -40 -113 -40c-106 0 -192 93 -192 215c0 120 86 215 192 215h1c5 0 11 0 16 -1zM383 230c0 98 -65 170 -144 170s-143 -72 -143 -170c0 -97 64 -169 142 -169c80 0 145 72 145 169z" />
    <glyph glyph-name="h" unicode="h" horiz-adv-x="517" 
d="M264 445c98 13 168 -56 168 -155v-290h-50v278c0 83 -55 132 -130 120c-44 -7 -89 -46 -113 -87v-311h-50v592l50 3v-230c30 40 75 73 125 80z" />
    <glyph glyph-name="hbar" unicode="&#x127;" horiz-adv-x="500" 
d="M264 445c98 13 168 -56 168 -155v-290h-50v278c0 83 -55 132 -130 120c-44 -7 -89 -46 -113 -87v-311h-50v494h-58v43h58v55l50 3v-58h84v-43h-84v-129c30 40 75 73 125 80z" />
    <glyph glyph-name="i" unicode="i" horiz-adv-x="229" 
d="M114 498c-22 0 -39 16 -39 39s17 39 39 39c24 0 40 -16 40 -39s-16 -39 -40 -39zM89 0l1 436l50 3l-1 -439h-50z" />
    <glyph glyph-name="dotlessi" unicode="&#x131;" horiz-adv-x="229" 
d="M89 0l1 436l50 3l-1 -439h-50z" />
    <glyph glyph-name="iacute" unicode="&#xed;" horiz-adv-x="229" 
d="M98 498l-20 32l158 116l29 -45zM89 0l1 436l50 3l-1 -439h-50z" />
    <glyph glyph-name="uni01D0" unicode="&#x1d0;" horiz-adv-x="229" 
d="M227 598l-112 -106l-112 107l31 29l80 -79l83 79zM89 0l1 436l50 3l-1 -439h-50z" />
    <glyph glyph-name="icircumflex" unicode="&#xee;" horiz-adv-x="229" 
d="M115 630l112 -106l-30 -30l-83 79l-80 -79l-31 29zM89 0l1 436l50 3l-1 -439h-50z" />
    <glyph glyph-name="idieresis" unicode="&#xef;" horiz-adv-x="229" 
d="M31 521c-22 0 -37 15 -37 37s15 37 37 37s37 -15 37 -37s-15 -37 -37 -37zM186 520c-22 0 -37 15 -37 37s15 37 37 37s37 -15 37 -37s-15 -37 -37 -37zM89 0l1 436l50 3l-1 -439h-50z" />
    <glyph glyph-name="i.loclTRK" horiz-adv-x="229" 
d="M114 498c-22 0 -39 16 -39 39s17 39 39 39c24 0 40 -16 40 -39s-16 -39 -40 -39zM89 0l1 436l50 3l-1 -439h-50z" />
    <glyph glyph-name="igrave" unicode="&#xec;" horiz-adv-x="229" 
d="M129 497l-167 104l29 45l158 -116zM89 0l1 436l50 3l-1 -439h-50z" />
    <glyph glyph-name="ij" unicode="&#x133;" horiz-adv-x="453" 
d="M340 509c-22 0 -39 16 -39 39s17 39 39 39c24 0 40 -16 40 -39s-16 -39 -40 -39zM114 498c-22 0 -39 16 -39 39s17 39 39 39c24 0 40 -16 40 -39s-16 -39 -40 -39zM89 0l1 436l50 3l-1 -439h-50zM248 -206c-26 0 -50 7 -66 15l14 43c10 -4 21 -8 46 -8c41 1 73 26 73 101
v490l50 3v-492c0 -108 -49 -152 -117 -152z" />
    <glyph glyph-name="imacron" unicode="&#x12b;" horiz-adv-x="229" 
d="M13 524v42h202v-42h-202zM89 0l1 436l50 3l-1 -439h-50z" />
    <glyph glyph-name="iogonek" unicode="&#x12f;" horiz-adv-x="229" 
d="M114 576c24 0 40 -16 40 -39s-16 -39 -40 -39c-22 0 -39 16 -39 39s17 39 39 39zM89 2l1 434l50 3l-1 -439h-1c-38 -26 -72 -51 -97 -83c-46 -60 16 -109 73 -60l20 -27c-97 -75 -191 17 -122 103c26 32 48 48 77 69z" />
    <glyph glyph-name="j" unicode="j" horiz-adv-x="224" 
d="M111 509c-22 0 -39 16 -39 39s17 39 39 39c24 0 40 -16 40 -39s-16 -39 -40 -39zM19 -206c-26 0 -50 7 -66 15l14 43c10 -4 21 -8 46 -8c41 1 73 26 73 101v490l50 3v-492c0 -108 -49 -152 -117 -152z" />
    <glyph glyph-name="uni0237" unicode="&#x237;" horiz-adv-x="224" 
d="M19 -206c-26 0 -50 7 -66 15l14 43c10 -4 21 -8 46 -8c41 1 73 26 73 101v490l50 3v-492c0 -108 -49 -152 -117 -152z" />
    <glyph glyph-name="k" unicode="k" horiz-adv-x="452" 
d="M373 0l-134 250l-100 -116v-134h-50v562l50 5v-363l205 236h58l-131 -152l154 -288h-52z" />
    <glyph glyph-name="kcommaaccent" unicode="&#x137;" horiz-adv-x="452" 
d="M271 288l154 -288h-52l-134 250l-100 -116v-134h-50v562l50 5v-363l205 236h58zM177 -199l33 169l40 -4l-24 -171z" />
    <glyph glyph-name="l" unicode="l" horiz-adv-x="259" 
d="M200 0c-81 0 -115 40 -115 129l1 460l50 3l-1 -453c0 -54 10 -89 68 -90h28v-49h-31z" />
    <glyph glyph-name="lacute" unicode="&#x13a;" horiz-adv-x="337" 
d="M129 677l-20 32l158 116l29 -45zM224 0c-81 0 -115 40 -115 129l1 460l50 3l-1 -453c0 -54 10 -89 68 -90h28v-49h-31z" />
    <glyph glyph-name="lcaron" unicode="&#x13e;" horiz-adv-x="365" 
d="M198 0c-81 0 -115 40 -115 129l1 460l50 3l-1 -453c0 -54 10 -89 68 -90h28v-49h-31zM274 379l-38 2l8 210l50 -4z" />
    <glyph glyph-name="lcommaaccent" unicode="&#x13c;" horiz-adv-x="311" 
d="M200 0c-81 0 -115 40 -115 129l1 460l50 3l-1 -453c0 -54 10 -89 68 -90h28v-49h-31zM156 -209l-49 6l33 169l40 -4z" />
    <glyph glyph-name="ldot" unicode="&#x140;" horiz-adv-x="367" 
d="M198 0c-81 0 -115 40 -115 129l1 460l50 3l-1 -453c0 -54 10 -89 68 -90h28v-49h-31zM279 295c-22 0 -37 15 -37 37s15 37 37 37s37 -15 37 -37s-15 -37 -37 -37z" />
    <glyph glyph-name="lslash" unicode="&#x142;" horiz-adv-x="277" 
d="M138 139c0 -54 10 -89 68 -90h28v-49h-31c-81 0 -115 40 -115 129v128l-68 -66l-30 30l98 97l1 271l50 3v-225l79 78l31 -31l-111 -108v-167z" />
    <glyph glyph-name="m" unicode="m" horiz-adv-x="767" 
d="M518 445c98 13 168 -56 168 -155v-290h-50v278c0 83 -55 132 -130 120c-35 -6 -71 -32 -97 -64c3 -12 4 -25 4 -39v-295h-50v283c0 84 -50 129 -122 115c-38 -7 -76 -38 -103 -72l1 -326h-50v439l47 4l2 -67c30 34 70 64 114 69c67 8 120 -21 145 -74c30 37 74 67 121 74
z" />
    <glyph glyph-name="n" unicode="n" horiz-adv-x="516" 
d="M263 445c98 13 168 -56 168 -155v-290h-50v278c0 83 -55 132 -130 120c-43 -7 -87 -45 -112 -85v-313h-50v440l49 3l1 -77c29 39 75 72 124 79z" />
    <glyph glyph-name="nacute" unicode="&#x144;" horiz-adv-x="516" 
d="M412 629l-167 -103l-20 32l158 116zM263 445c98 13 168 -56 168 -155v-290h-50v278c0 83 -55 132 -130 120c-43 -7 -87 -45 -112 -85v-313h-50v440l49 3l1 -77c29 39 75 72 124 79z" />
    <glyph glyph-name="ncaron" unicode="&#x148;" horiz-adv-x="516" 
d="M374 626l-112 -106l-112 107l31 29l80 -79l83 79zM263 445c98 13 168 -56 168 -155v-290h-50v278c0 83 -55 132 -130 120c-43 -7 -87 -45 -112 -85v-313h-50v440l49 3l1 -77c29 39 75 72 124 79z" />
    <glyph glyph-name="ncommaaccent" unicode="&#x146;" horiz-adv-x="516" 
d="M263 445c98 13 168 -56 168 -155v-290h-50v278c0 83 -55 132 -130 120c-43 -7 -87 -45 -112 -85v-313h-50v440l49 3l1 -77c29 39 75 72 124 79zM201 -201l33 169l40 -4l-24 -171z" />
    <glyph glyph-name="eng" unicode="&#x14b;" horiz-adv-x="497" 
d="M431 198h1v-285c0 -86 -53 -128 -119 -128c-28 0 -48 7 -64 13l14 45c10 -4 19 -8 46 -8c41 1 73 26 73 86v79h-1v278c0 83 -55 132 -130 120c-43 -7 -87 -45 -112 -85v-313h-50v440l49 3l1 -77c29 39 75 72 124 79c98 13 168 -56 168 -155v-92z" />
    <glyph glyph-name="ntilde" unicode="&#xf1;" horiz-adv-x="516" 
d="M213 582c-17 0 -24 -18 -32 -37l-38 18c9 24 27 63 65 63c36 0 69 -40 99 -40c19 0 26 11 35 35l39 -17c-7 -20 -24 -63 -68 -63c-42 1 -70 41 -100 41zM263 445c98 13 168 -56 168 -155v-290h-50v278c0 83 -55 132 -130 120c-43 -7 -87 -45 -112 -85v-313h-50v440l49 3
l1 -77c29 39 75 72 124 79z" />
    <glyph glyph-name="o" unicode="o" horiz-adv-x="492" 
d="M246 -5c-111 0 -197 92 -197 217v16c0 125 86 217 197 217c110 0 197 -92 197 -217v-16c0 -125 -87 -217 -197 -217zM245 41c83 0 148 69 148 171v16c0 103 -65 172 -147 172s-147 -69 -147 -172v-16c0 -102 65 -171 146 -171z" />
    <glyph glyph-name="oacute" unicode="&#xf3;" horiz-adv-x="492" 
d="M229 526l-20 32l158 116l29 -45zM246 -5c-111 0 -197 92 -197 217v16c0 125 86 217 197 217c110 0 197 -92 197 -217v-16c0 -125 -87 -217 -197 -217zM245 41c83 0 148 69 148 171v16c0 103 -65 172 -147 172s-147 -69 -147 -172v-16c0 -102 65 -171 146 -171z" />
    <glyph glyph-name="uni01D2" unicode="&#x1d2;" horiz-adv-x="492" 
d="M358 626l-112 -106l-112 107l31 29l80 -79l83 79zM246 445c110 0 197 -92 197 -217v-16c0 -125 -87 -217 -197 -217c-111 0 -197 92 -197 217v16c0 125 86 217 197 217zM393 212v16c0 103 -65 172 -147 172s-147 -69 -147 -172v-16c0 -102 65 -171 146 -171
c83 0 148 69 148 171z" />
    <glyph glyph-name="ocircumflex" unicode="&#xf4;" horiz-adv-x="492" 
d="M245 601l-80 -79l-31 29l112 107l112 -106l-30 -30zM246 445c110 0 197 -92 197 -217v-16c0 -125 -87 -217 -197 -217c-111 0 -197 92 -197 217v16c0 125 86 217 197 217zM393 212v16c0 103 -65 172 -147 172s-147 -69 -147 -172v-16c0 -102 65 -171 146 -171
c83 0 148 69 148 171z" />
    <glyph glyph-name="odieresis" unicode="&#xf6;" horiz-adv-x="492" 
d="M162 549c-22 0 -37 15 -37 37s15 37 37 37s37 -15 37 -37s-15 -37 -37 -37zM317 548c-22 0 -37 15 -37 37s15 37 37 37s37 -15 37 -37s-15 -37 -37 -37zM246 -5c-111 0 -197 92 -197 217v16c0 125 86 217 197 217c110 0 197 -92 197 -217v-16c0 -125 -87 -217 -197 -217z
M245 41c83 0 148 69 148 171v16c0 103 -65 172 -147 172s-147 -69 -147 -172v-16c0 -102 65 -171 146 -171z" />
    <glyph glyph-name="ograve" unicode="&#xf2;" horiz-adv-x="492" 
d="M260 525l-167 104l29 45l158 -116zM246 -5c-111 0 -197 92 -197 217v16c0 125 86 217 197 217c110 0 197 -92 197 -217v-16c0 -125 -87 -217 -197 -217zM245 41c83 0 148 69 148 171v16c0 103 -65 172 -147 172s-147 -69 -147 -172v-16c0 -102 65 -171 146 -171z" />
    <glyph glyph-name="ohungarumlaut" unicode="&#x151;" horiz-adv-x="492" 
d="M191 513l-40 1l11 196l48 -3zM321 512l-41 2l15 196l48 -4zM246 -5c-111 0 -197 92 -197 217v16c0 125 86 217 197 217c110 0 197 -92 197 -217v-16c0 -125 -87 -217 -197 -217zM245 41c83 0 148 69 148 171v16c0 103 -65 172 -147 172s-147 -69 -147 -172v-16
c0 -102 65 -171 146 -171z" />
    <glyph glyph-name="omacron" unicode="&#x14d;" horiz-adv-x="492" 
d="M144 552v42h202v-42h-202zM246 -5c-111 0 -197 92 -197 217v16c0 125 86 217 197 217c110 0 197 -92 197 -217v-16c0 -125 -87 -217 -197 -217zM245 41c83 0 148 69 148 171v16c0 103 -65 172 -147 172s-147 -69 -147 -172v-16c0 -102 65 -171 146 -171z" />
    <glyph glyph-name="oslash" unicode="&#xf8;" horiz-adv-x="492" 
d="M450 405l-45 -46c24 -36 38 -81 38 -131v-16c0 -125 -87 -217 -197 -217c-55 0 -103 22 -138 60l-42 -43l-25 23l45 47c-23 35 -37 80 -37 130v16c0 125 86 217 197 217c54 0 102 -22 138 -59l42 43zM99 212c0 -36 8 -68 22 -95l230 235c-27 31 -64 48 -105 48
c-82 0 -147 -69 -147 -172v-16zM393 228c0 37 -8 69 -23 96l-229 -235c27 -31 63 -48 104 -48c83 0 148 69 148 171v16z" />
    <glyph glyph-name="otilde" unicode="&#xf5;" horiz-adv-x="492" 
d="M165 545l-38 18c9 24 27 63 65 63c36 0 69 -40 99 -40c19 0 26 11 35 35l39 -17c-7 -20 -24 -63 -68 -63c-42 1 -70 41 -100 41c-17 0 -24 -18 -32 -37zM246 -5c-111 0 -197 92 -197 217v16c0 125 86 217 197 217c110 0 197 -92 197 -217v-16c0 -125 -87 -217 -197 -217z
M245 41c83 0 148 69 148 171v16c0 103 -65 172 -147 172s-147 -69 -147 -172v-16c0 -102 65 -171 146 -171z" />
    <glyph glyph-name="oe" unicode="&#x153;" horiz-adv-x="851" 
d="M797 208l-328 1v-8c2 -94 58 -161 141 -161c56 0 102 29 130 84l45 -14c-32 -70 -95 -115 -174 -115c-86 0 -150 54 -177 137c-28 -82 -98 -137 -180 -137c-111 0 -197 92 -197 217v16c0 125 86 217 197 217c83 0 153 -55 181 -138c27 83 93 138 176 138
c103 0 187 -84 187 -204c0 -15 0 -23 -1 -33zM611 401c-78 0 -140 -71 -141 -148h279c0 88 -64 148 -138 148zM401 212v16c0 101 -65 170 -147 170s-147 -69 -147 -170v-16c0 -100 65 -169 146 -169c83 0 148 69 148 169z" />
    <glyph glyph-name="p" unicode="p" horiz-adv-x="479" 
d="M254 445c110 13 177 -96 177 -223c0 -148 -83 -231 -181 -221c-41 4 -77 28 -110 62v-260l-51 3v634l49 3l2 -68c33 36 74 64 114 70zM246 46c79 -6 133 59 133 176c0 104 -51 188 -133 177c-35 -4 -74 -37 -106 -73v-217c35 -33 71 -60 106 -63z" />
    <glyph glyph-name="thorn" unicode="&#xfe;" horiz-adv-x="451" 
d="M231 445c110 13 177 -96 177 -223c0 -148 -83 -231 -181 -221c-38 4 -72 25 -104 56v-262l-50 3v792l50 3v-212c32 33 70 59 108 64zM223 46c79 -6 133 59 133 176c0 104 -51 188 -133 177c-33 -4 -69 -33 -100 -66v-229c33 -31 67 -55 100 -58z" />
    <glyph glyph-name="q" unicode="q" horiz-adv-x="486" 
d="M349 444l48 -4v-637l-50 3v264c-32 -33 -67 -63 -112 -70c-110 -17 -186 76 -186 222c0 133 77 251 200 222c39 -9 69 -40 98 -74v39zM234 45c41 5 73 30 113 70v209c-30 35 -61 67 -100 75c-87 18 -146 -66 -146 -177c0 -117 54 -184 133 -177z" />
    <glyph glyph-name="r" unicode="r" horiz-adv-x="300" 
d="M138 358c31 65 85 93 144 85l-1 -51c-76 8 -136 -44 -143 -137l-1 -255h-50v442l48 2l3 -74v-12z" />
    <glyph glyph-name="racute" unicode="&#x155;" horiz-adv-x="300" 
d="M294 631l-167 -103l-20 32l158 116zM138 358c31 65 85 93 144 85l-1 -51c-76 8 -136 -44 -143 -137l-1 -255h-50v442l48 2l3 -74v-12z" />
    <glyph glyph-name="rcaron" unicode="&#x159;" horiz-adv-x="300" 
d="M256 628l-112 -106l-112 107l31 29l80 -79l83 79zM138 358c31 65 85 93 144 85l-1 -51c-76 8 -136 -44 -143 -137l-1 -255h-50v442l48 2l3 -74v-12z" />
    <glyph glyph-name="rcommaaccent" unicode="&#x157;" horiz-adv-x="300" 
d="M138 358c31 65 85 93 144 85l-1 -51c-76 8 -136 -44 -143 -137l-1 -255h-50v442l48 2l3 -74v-12zM60 -201l33 169l40 -4l-24 -171z" />
    <glyph glyph-name="s" unicode="s" horiz-adv-x="409" 
d="M204 -5c-95 0 -143 69 -151 109l46 14c12 -32 39 -78 105 -78c71 0 102 42 100 78c-5 107 -245 70 -245 208c0 69 64 119 145 119c85 0 137 -55 151 -106l-46 -14c-7 35 -45 76 -104 76c-72 0 -97 -50 -96 -76c4 -99 246 -61 246 -209c0 -61 -54 -121 -151 -121z" />
    <glyph glyph-name="sacute" unicode="&#x15b;" horiz-adv-x="409" 
d="M183 518l-20 32l158 116l29 -45zM204 -5c-95 0 -143 69 -151 109l46 14c12 -32 39 -78 105 -78c71 0 102 42 100 78c-5 107 -245 70 -245 208c0 69 64 119 145 119c85 0 137 -55 151 -106l-46 -14c-7 35 -45 76 -104 76c-72 0 -97 -50 -96 -76c4 -99 246 -61 246 -209
c0 -61 -54 -121 -151 -121z" />
    <glyph glyph-name="scaron" unicode="&#x161;" horiz-adv-x="409" 
d="M312 618l-112 -106l-112 107l31 29l80 -79l83 79zM109 325c4 -99 246 -61 246 -209c0 -61 -54 -121 -151 -121c-95 0 -143 69 -151 109l46 14c12 -32 39 -78 105 -78c71 0 102 42 100 78c-5 107 -245 70 -245 208c0 69 64 119 145 119c85 0 137 -55 151 -106l-46 -14
c-7 35 -45 76 -104 76c-72 0 -97 -50 -96 -76z" />
    <glyph glyph-name="scedilla" unicode="&#x15f;" horiz-adv-x="409" 
d="M109 325c4 -99 246 -61 246 -209c0 -59 -50 -116 -140 -121l-2 -38c62 10 107 -26 107 -76c0 -58 -43 -88 -94 -88c-53 0 -81 30 -88 45l24 21c7 -10 25 -30 63 -30c30 0 56 19 56 53c0 26 -22 48 -66 49c-15 0 -26 -1 -38 -1l1 67c-78 11 -118 71 -125 107l46 14
c12 -32 39 -78 105 -78c71 0 102 42 100 78c-5 107 -245 70 -245 208c0 69 64 119 145 119c85 0 137 -55 151 -106l-46 -14c-7 35 -45 76 -104 76c-72 0 -97 -50 -96 -76z" />
    <glyph glyph-name="scommaaccent" unicode="&#x219;" horiz-adv-x="409" 
d="M204 -5c-95 0 -143 69 -151 109l46 14c12 -32 39 -78 105 -78c71 0 102 42 100 78c-5 107 -245 70 -245 208c0 69 64 119 145 119c85 0 137 -55 151 -106l-46 -14c-7 35 -45 76 -104 76c-72 0 -97 -50 -96 -76c4 -99 246 -61 246 -209c0 -61 -54 -121 -151 -121z
M192 -214l-49 6l33 169l40 -4z" />
    <glyph glyph-name="germandbls" unicode="&#xdf;" horiz-adv-x="500" 
d="M92 0v422c1 113 60 162 146 162c88 0 149 -47 149 -115c0 -70 -59 -107 -59 -133c0 -40 133 -61 133 -191c0 -102 -75 -150 -150 -150c-47 0 -86 20 -110 38l15 42c16 -12 44 -31 87 -31c47 1 107 27 107 108c0 109 -137 116 -137 182c0 37 64 77 64 134
c0 45 -39 74 -99 74s-97 -36 -97 -113l-1 -429h-48z" />
    <glyph glyph-name="t" unicode="t" horiz-adv-x="294" 
d="M222 49h28v-49h-31c-81 0 -115 41 -115 129l1 248h-56v48h56v135l50 3v-138h85v-48h-85l-1 -238c0 -54 10 -89 68 -90z" />
    <glyph glyph-name="tbar" unicode="&#x167;" horiz-adv-x="294" 
d="M222 49h28v-49h-31c-81 0 -115 41 -115 129v113h-53v43h53l1 92h-56v48h56v135l50 3v-138h85v-48h-85l-1 -92h89v-43h-89v-103c0 -54 10 -89 68 -90z" />
    <glyph glyph-name="tcaron" unicode="&#x165;" horiz-adv-x="381" 
d="M336 594l50 -4l-20 -208l-38 2zM174 139c0 -54 10 -89 68 -90h28v-49h-31c-81 0 -115 41 -115 129l1 248h-56v48h56v135l50 3v-138h85v-48h-85z" />
    <glyph glyph-name="uni0163" unicode="&#x163;" horiz-adv-x="294" 
d="M195 -34c62 10 107 -26 107 -76c0 -58 -43 -88 -94 -88c-53 0 -81 30 -88 45l24 21c7 -10 25 -30 63 -30c30 0 56 19 56 53c0 26 -22 48 -66 49c-15 0 -26 -1 -38 -1l1 72c-39 17 -56 56 -56 118l1 248h-56v48h56v135l50 3v-138h85v-48h-85l-1 -238c0 -54 10 -89 68 -90
h28v-49h-31c-8 0 -15 0 -22 1z" />
    <glyph glyph-name="uni021B" unicode="&#x21b;" horiz-adv-x="294" 
d="M222 49h28v-49h-31c-81 0 -115 41 -115 129l1 248h-56v48h56v135l50 3v-138h85v-48h-85l-1 -238c0 -54 10 -89 68 -90zM125 -199l33 169l40 -4l-24 -171z" />
    <glyph glyph-name="u" unicode="u" horiz-adv-x="512" 
d="M372 440h50v-440h-49l-2 68c-31 -33 -75 -61 -125 -68c-97 -12 -166 55 -166 155v283l50 3v-273c0 -88 54 -133 128 -120c43 8 85 40 113 80z" />
    <glyph glyph-name="uacute" unicode="&#xfa;" horiz-adv-x="512" 
d="M406 622l-167 -103l-20 32l158 116zM372 440h50v-440h-49l-2 68c-31 -33 -75 -61 -125 -68c-97 -12 -166 55 -166 155v283l50 3v-273c0 -88 54 -133 128 -120c43 8 85 40 113 80z" />
    <glyph glyph-name="uni01D4" unicode="&#x1d4;" horiz-adv-x="512" 
d="M368 619l-112 -106l-112 107l31 29l80 -79l83 79zM372 440h50v-440h-49l-2 68c-31 -33 -75 -61 -125 -68c-97 -12 -166 55 -166 155v283l50 3v-273c0 -88 54 -133 128 -120c43 8 85 40 113 80z" />
    <glyph glyph-name="ucircumflex" unicode="&#xfb;" horiz-adv-x="512" 
d="M255 594l-80 -79l-31 29l112 107l112 -106l-30 -30zM372 440h50v-440h-49l-2 68c-31 -33 -75 -61 -125 -68c-97 -12 -166 55 -166 155v283l50 3v-273c0 -88 54 -133 128 -120c43 8 85 40 113 80z" />
    <glyph glyph-name="udieresis" unicode="&#xfc;" horiz-adv-x="512" 
d="M172 542c-22 0 -37 15 -37 37s15 37 37 37s37 -15 37 -37s-15 -37 -37 -37zM327 541c-22 0 -37 15 -37 37s15 37 37 37s37 -15 37 -37s-15 -37 -37 -37zM372 440h50v-440h-49l-2 68c-31 -33 -75 -61 -125 -68c-97 -12 -166 55 -166 155v283l50 3v-273
c0 -88 54 -133 128 -120c43 8 85 40 113 80z" />
    <glyph glyph-name="ugrave" unicode="&#xf9;" horiz-adv-x="512" 
d="M290 551l-20 -33l-167 104l29 45zM372 440h50v-440h-49l-2 68c-31 -33 -75 -61 -125 -68c-97 -12 -166 55 -166 155v283l50 3v-273c0 -88 54 -133 128 -120c43 8 85 40 113 80z" />
    <glyph glyph-name="uhungarumlaut" unicode="&#x171;" horiz-adv-x="512" 
d="M220 700l-19 -194l-40 1l11 196zM353 699l-22 -194l-41 2l15 196zM372 440h50v-440h-49l-2 68c-31 -33 -75 -61 -125 -68c-97 -12 -166 55 -166 155v283l50 3v-273c0 -88 54 -133 128 -120c43 8 85 40 113 80z" />
    <glyph glyph-name="umacron" unicode="&#x16b;" horiz-adv-x="512" 
d="M356 587v-42h-202v42h202zM372 440h50v-440h-49l-2 68c-31 -33 -75 -61 -125 -68c-97 -12 -166 55 -166 155v283l50 3v-273c0 -88 54 -133 128 -120c43 8 85 40 113 80z" />
    <glyph glyph-name="uogonek" unicode="&#x173;" horiz-adv-x="512" 
d="M372 440h50v-440h-1c-38 -26 -72 -51 -97 -83c-46 -60 16 -109 73 -60l20 -27c-97 -75 -191 17 -122 103c26 32 49 48 78 69l-2 66c-31 -33 -75 -61 -125 -68c-97 -12 -166 55 -166 155v283l50 3v-273c0 -88 54 -133 128 -120c43 8 85 40 113 80z" />
    <glyph glyph-name="uring" unicode="&#x16f;" horiz-adv-x="512" 
d="M257 511c-41 0 -74 34 -74 73c0 41 33 73 74 73c39 0 71 -32 71 -73c0 -39 -32 -73 -71 -73zM256 622c-20 0 -36 -17 -36 -38c0 -20 16 -36 36 -36c21 0 35 16 35 36c0 21 -14 38 -35 38zM372 440h50v-440h-49l-2 68c-31 -33 -75 -61 -125 -68c-97 -12 -166 55 -166 155
v283l50 3v-273c0 -88 54 -133 128 -120c43 8 85 40 113 80z" />
    <glyph glyph-name="v" unicode="v" horiz-adv-x="433" 
d="M353 442l49 -3l-157 -439h-57l-157 439l49 3l137 -389z" />
    <glyph glyph-name="w" unicode="w" horiz-adv-x="631" 
d="M551 442l48 -2l-126 -440h-53l-104 364l-105 -364h-53l-126 440l48 2l108 -382l107 372h42l107 -372z" />
    <glyph glyph-name="wacute" unicode="&#x1e83;" horiz-adv-x="631" 
d="M466 614l-167 -103l-20 32l158 116zM551 442l48 -2l-126 -440h-53l-104 364l-105 -364h-53l-126 440l48 2l108 -382l107 372h42l107 -372z" />
    <glyph glyph-name="wcircumflex" unicode="&#x175;" horiz-adv-x="631" 
d="M315 586l-80 -79l-31 29l112 107l112 -106l-30 -30zM551 442l48 -2l-126 -440h-53l-104 364l-105 -364h-53l-126 440l48 2l108 -382l107 372h42l107 -372z" />
    <glyph glyph-name="wdieresis" unicode="&#x1e85;" horiz-adv-x="631" 
d="M232 534c-22 0 -37 15 -37 37s15 37 37 37s37 -15 37 -37s-15 -37 -37 -37zM387 533c-22 0 -37 15 -37 37s15 37 37 37s37 -15 37 -37s-15 -37 -37 -37zM551 442l48 -2l-126 -440h-53l-104 364l-105 -364h-53l-126 440l48 2l108 -382l107 372h42l107 -372z" />
    <glyph glyph-name="wgrave" unicode="&#x1e81;" horiz-adv-x="631" 
d="M350 543l-20 -33l-167 104l29 45zM551 442l48 -2l-126 -440h-53l-104 364l-105 -364h-53l-126 440l48 2l108 -382l107 372h42l107 -372z" />
    <glyph glyph-name="x" unicode="x" horiz-adv-x="454" 
d="M417 438l-160 -220l157 -218h-55l-132 184l-133 -184h-55l158 219l-159 219l53 4l136 -189l136 188z" />
    <glyph glyph-name="y" unicode="y" horiz-adv-x="510" 
d="M371 440h50v-466c0 -111 -75 -180 -184 -180c-64 0 -120 33 -141 59l26 36c18 -21 64 -48 115 -48c75 0 134 48 134 135v92c-32 -33 -75 -61 -125 -68c-97 -12 -166 55 -166 155v283l50 3v-273c0 -88 54 -133 128 -120c43 8 85 40 113 80v312z" />
    <glyph glyph-name="yacute" unicode="&#xfd;" horiz-adv-x="510" 
d="M404 607l-167 -103l-20 32l158 116zM371 440h50v-466c0 -111 -75 -180 -184 -180c-64 0 -120 33 -141 59l26 36c18 -21 64 -48 115 -48c75 0 134 48 134 135v92c-32 -33 -75 -61 -125 -68c-97 -12 -166 55 -166 155v283l50 3v-273c0 -88 54 -133 128 -120
c43 8 85 40 113 80v312z" />
    <glyph glyph-name="ycircumflex" unicode="&#x177;" horiz-adv-x="510" 
d="M253 579l-80 -79l-31 29l112 107l112 -106l-30 -30zM371 440h50v-466c0 -111 -75 -180 -184 -180c-64 0 -120 33 -141 59l26 36c18 -21 64 -48 115 -48c75 0 134 48 134 135v92c-32 -33 -75 -61 -125 -68c-97 -12 -166 55 -166 155v283l50 3v-273c0 -88 54 -133 128 -120
c43 8 85 40 113 80v312z" />
    <glyph glyph-name="ydieresis" unicode="&#xff;" horiz-adv-x="510" 
d="M170 527c-22 0 -37 15 -37 37s15 37 37 37s37 -15 37 -37s-15 -37 -37 -37zM325 526c-22 0 -37 15 -37 37s15 37 37 37s37 -15 37 -37s-15 -37 -37 -37zM371 440h50v-466c0 -111 -75 -180 -184 -180c-64 0 -120 33 -141 59l26 36c18 -21 64 -48 115 -48
c75 0 134 48 134 135v92c-32 -33 -75 -61 -125 -68c-97 -12 -166 55 -166 155v283l50 3v-273c0 -88 54 -133 128 -120c43 8 85 40 113 80v312z" />
    <glyph glyph-name="ygrave" unicode="&#x1ef3;" horiz-adv-x="510" 
d="M288 536l-20 -33l-167 104l29 45zM371 440h50v-466c0 -111 -75 -180 -184 -180c-64 0 -120 33 -141 59l26 36c18 -21 64 -48 115 -48c75 0 134 48 134 135v92c-32 -33 -75 -61 -125 -68c-97 -12 -166 55 -166 155v283l50 3v-273c0 -88 54 -133 128 -120
c43 8 85 40 113 80v312z" />
    <glyph glyph-name="z" unicode="z" horiz-adv-x="400" 
d="M343 440v-47l-231 -346h231v-47h-287v47l230 346h-230v47h287z" />
    <glyph glyph-name="zacute" unicode="&#x17a;" horiz-adv-x="400" 
d="M351 621l-167 -103l-20 32l158 116zM56 393v47h287v-47l-231 -346h231v-47h-287v47l230 346h-230z" />
    <glyph glyph-name="zcaron" unicode="&#x17e;" horiz-adv-x="400" 
d="M313 618l-112 -106l-112 107l31 29l80 -79l83 79zM343 440v-47l-231 -346h231v-47h-287v47l230 346h-230v47h287z" />
    <glyph glyph-name="zdotaccent" unicode="&#x17c;" horiz-adv-x="400" 
d="M200 518c-22 0 -39 16 -39 39s17 39 39 39c24 0 40 -16 40 -39s-16 -39 -40 -39zM343 440v-47l-231 -346h231v-47h-287v47l230 346h-230v47h287z" />
    <glyph glyph-name="f_f.dlig" horiz-adv-x="542" 
d="M103 486c0 70 53 117 118 117c23 0 47 -5 62 -11l-12 -41c-11 4 -22 7 -47 7c-39 -1 -71 -32 -71 -74v-62h98v-44h-98v-378h-50v378h-58v44h58v64zM495 558c-39 -1 -71 -32 -71 -74v-62h98v-44h-98v-378h-50v378h-58v44h58v64c0 70 53 117 118 117c23 0 47 -5 62 -11
l-12 -41c-11 4 -22 7 -47 7z" />
    <glyph glyph-name="f_f_i.dlig" horiz-adv-x="779" 
d="M103 486c0 70 53 117 118 117c23 0 47 -5 62 -11l-12 -41c-11 4 -22 7 -47 7c-39 -1 -71 -32 -71 -74v-62h98v-44h-98v-378h-50v378h-58v44h58v64zM368 486c0 70 53 117 118 117c23 0 47 -5 62 -11l-12 -41c-11 4 -22 7 -47 7c-39 -1 -71 -32 -71 -74v-62h98v-44h-98
v-378h-50v378h-58v44h58v64zM654 576c24 0 40 -16 40 -39s-16 -39 -40 -39c-22 0 -39 16 -39 39s17 39 39 39zM629 0l1 436l50 3l-1 -439h-50z" />
    <glyph glyph-name="zero" unicode="0" horiz-adv-x="523" 
d="M261 -3c-110 0 -206 88 -206 271v24c0 183 96 271 206 271s206 -88 206 -271v-24c0 -183 -95 -271 -206 -271zM261 44c83 0 157 66 157 224v24c0 158 -73 223 -156 223c-84 0 -157 -65 -157 -223v-24c0 -158 73 -224 156 -224z" />
    <glyph glyph-name="one" unicode="1" horiz-adv-x="272" 
d="M35 554l136 8v-562h-50v510l-86 -4v48z" />
    <glyph glyph-name="two" unicode="2" horiz-adv-x="432" 
d="M120 48h267v-48h-332v43l207 253c37 47 58 84 57 131c0 55 -47 94 -98 94c-62 0 -96 -39 -110 -91l-46 12c20 75 73 126 156 126c80 0 148 -60 149 -143c1 -59 -27 -101 -70 -155z" />
    <glyph glyph-name="three" unicode="3" horiz-adv-x="455" 
d="M221 340c112 8 180 -77 180 -167c0 -98 -78 -178 -178 -178c-92 0 -158 71 -170 134l46 15c9 -48 55 -102 123 -102c74 0 130 59 130 131s-56 128 -121 131c-22 1 -36 -3 -58 -10l-19 36l174 185h-264v45h322v-47z" />
    <glyph glyph-name="four" unicode="4" horiz-adv-x="439" 
d="M392 192v-49h-47v-143h-50v143h-258l105 417h49l-91 -368h195l1 225l49 -3v-222h47z" />
    <glyph glyph-name="five" unicode="5" horiz-adv-x="463" 
d="M240 347c96 -1 169 -78 169 -174s-78 -178 -178 -178c-93 0 -160 71 -172 134l44 14c12 -47 57 -101 127 -101c74 0 130 60 130 131c0 72 -56 133 -130 133c-38 0 -76 -16 -99 -41l-45 27l17 267h276v-47h-229l-12 -196c29 19 67 31 102 31z" />
    <glyph glyph-name="six" unicode="6" horiz-adv-x="482" 
d="M245 367c119 0 183 -88 183 -184c0 -103 -72 -187 -187 -187c-116 0 -193 90 -186 200v1c0 5 0 11 1 17c12 96 114 221 186 346h52c-56 -93 -97 -158 -126 -208c23 10 49 15 77 15zM241 41c85 0 138 64 138 141s-53 140 -138 140c-58 0 -109 -34 -129 -81
c-7 -21 -10 -39 -10 -59c0 -77 54 -141 139 -141z" />
    <glyph glyph-name="seven" unicode="7" horiz-adv-x="366" 
d="M37 560h314l-199 -560h-53l184 512h-246v48z" />
    <glyph glyph-name="eight" unicode="8" horiz-adv-x="487" 
d="M326 317c70 -27 106 -89 106 -151c0 -86 -61 -171 -188 -171c-120 0 -189 81 -189 171c0 62 36 124 107 151c-43 23 -69 65 -69 112c0 76 60 136 151 136c90 0 150 -60 150 -136c0 -47 -26 -89 -68 -112zM244 524c-64 0 -106 -42 -106 -95c0 -55 44 -95 106 -95
c64 0 105 42 105 95c0 54 -43 95 -105 95zM244 37c102 0 141 68 141 131c0 56 -39 126 -141 126s-141 -70 -141 -126c0 -67 47 -131 141 -131z" />
    <glyph glyph-name="nine" unicode="9" horiz-adv-x="493" 
d="M433 363c0 -5 0 -11 -1 -17c-12 -96 -114 -221 -186 -346h-52c56 93 97 158 126 208c-23 -10 -49 -15 -77 -15c-119 0 -183 88 -183 184c0 103 72 187 187 187c116 0 193 -90 186 -200v-1zM247 238c58 0 109 34 129 81c7 21 10 39 10 59c0 77 -54 141 -139 141
s-138 -64 -138 -141s53 -140 138 -140z" />
    <glyph glyph-name="asterisk" unicode="*" horiz-adv-x="410" 
d="M350 495l-124 -60l123 -58l-21 -37l-111 76l7 -136h-39l8 136l-111 -76l-22 37l124 58l-124 60l21 36l112 -77l-8 137h39l-7 -137l111 77z" />
    <glyph glyph-name="backslash" unicode="\" horiz-adv-x="298" 
d="M202 0l-192 659h48l192 -659h-48z" />
    <glyph glyph-name="periodcentered" unicode="&#xb7;" horiz-adv-x="129" 
d="M88 215c-22 0 -38 17 -38 38c0 22 16 37 38 37s37 -15 37 -37c0 -21 -15 -38 -37 -38z" />
    <glyph glyph-name="bullet" unicode="&#x2022;" horiz-adv-x="170" 
d="M86 187c-34 0 -59 24 -59 57c0 32 25 56 59 56c31 0 56 -24 56 -56c0 -33 -25 -57 -56 -57z" />
    <glyph glyph-name="colon" unicode=":" horiz-adv-x="220" 
d="M113 347c-22 0 -38 17 -38 38c0 22 16 37 38 37s37 -15 37 -37c0 -21 -15 -38 -37 -38zM114 -1c-22 0 -38 17 -38 38c0 22 16 37 38 37s37 -15 37 -37c0 -21 -15 -38 -37 -38z" />
    <glyph glyph-name="comma" unicode="," horiz-adv-x="167" 
d="M90 -127l-48 6l43 219l40 -4z" />
    <glyph glyph-name="ellipsis" unicode="&#x2026;" horiz-adv-x="547" 
d="M101 -2c-22 0 -38 17 -38 38c0 22 16 37 38 37s37 -15 37 -37c0 -21 -15 -38 -37 -38zM274 -2c-22 0 -38 17 -38 38c0 22 16 37 38 37s37 -15 37 -37c0 -21 -15 -38 -37 -38zM451 -2c-22 0 -38 17 -38 38c0 22 16 37 38 37s37 -15 37 -37c0 -21 -15 -38 -37 -38z" />
    <glyph glyph-name="exclam" unicode="!" horiz-adv-x="193" 
d="M82 160l-11 452h56l-7 -452h-38zM104 -3c-22 0 -38 17 -38 38c0 22 16 37 38 37s37 -15 37 -37c0 -21 -15 -38 -37 -38z" />
    <glyph glyph-name="exclamdown" unicode="&#xa1;" horiz-adv-x="197" 
d="M101 419c-22 0 -38 17 -38 38c0 22 16 37 38 37s37 -15 37 -37c0 -21 -15 -38 -37 -38zM128 -130h-56l11 451h35z" />
    <glyph glyph-name="uni203D" unicode="&#x203d;" horiz-adv-x="359" 
d="M165 619c106 0 168 -71 168 -161c0 -74 -45 -117 -84 -153c-32 -29 -64 -55 -67 -101c-2 -20 -2 -38 -2 -53l-50 3v27l-7 293l54 5l-3 -179c14 14 29 27 43 40c34 32 66 67 66 116c0 67 -46 115 -116 115c-66 0 -109 -47 -116 -109l-49 12c13 86 77 145 163 145zM161 72
c22 0 37 -15 37 -37c0 -21 -15 -38 -37 -38s-38 17 -38 38c0 22 16 37 38 37z" />
    <glyph glyph-name="numbersign" unicode="#" horiz-adv-x="589" 
d="M571 381h-111l-44 -198h116l-10 -46h-116l-30 -137h-48l30 137h-194l-30 -137h-48l30 137h-110l10 46h110l44 198h-111l10 45h111l30 135h48l-30 -135h193l30 135h48l-30 -135h112zM368 183l44 198h-194l-44 -198h194z" />
    <glyph glyph-name="period" unicode="." horiz-adv-x="189" 
d="M95 -2c-22 0 -38 17 -38 38c0 22 16 37 38 37s37 -15 37 -37c0 -21 -15 -38 -37 -38z" />
    <glyph glyph-name="question" unicode="?" horiz-adv-x="355" 
d="M180 151l-50 3c0 15 0 33 2 52c4 69 49 101 85 134c34 32 66 67 66 116c0 67 -46 115 -116 115c-66 0 -109 -47 -116 -109l-49 12c13 86 77 145 163 145c106 0 168 -71 168 -161c0 -74 -45 -117 -84 -153c-32 -29 -64 -55 -67 -101c-2 -20 -2 -38 -2 -53zM161 -3
c-22 0 -38 17 -38 38c0 22 16 37 38 37s37 -15 37 -37c0 -21 -15 -38 -37 -38z" />
    <glyph glyph-name="questiondown" unicode="&#xbf;" horiz-adv-x="465" 
d="M251 390c-22 0 -38 17 -38 38c0 22 16 37 38 37s37 -15 37 -37c0 -21 -15 -38 -37 -38zM222 324l51 -4c0 -15 0 -34 -2 -53c-4 -69 -48 -103 -84 -137c-34 -31 -65 -66 -65 -115c0 -67 44 -112 115 -112c66 0 107 45 113 107l51 -12c-12 -87 -77 -146 -163 -146
c-105 0 -168 72 -168 162c0 74 45 117 84 152c31 30 63 57 67 104c1 19 1 38 1 54z" />
    <glyph glyph-name="quotedbl" unicode="&#x22;" horiz-adv-x="293" 
d="M8 409l-5 230l51 3l-6 -233h-40zM193 409l-5 230l51 3l-6 -233h-40z" />
    <glyph glyph-name="quotesingle" unicode="'" horiz-adv-x="93" 
d="M18 409l-5 230l51 3l-6 -233h-40z" />
    <glyph glyph-name="semicolon" unicode=";" horiz-adv-x="185" 
d="M112 288c-22 0 -38 17 -38 38c0 22 16 37 38 37s37 -15 37 -37c0 -21 -15 -38 -37 -38zM90 -113l-48 6l43 219l40 -4z" />
    <glyph glyph-name="slash" unicode="/" horiz-adv-x="298" 
d="M48 0l192 659h48l-192 -659h-48z" />
    <glyph glyph-name="underscore" unicode="_" horiz-adv-x="666" 
d="M101 -60l6 47h457l-5 -47h-458z" />
    <glyph glyph-name="braceleft" unicode="{" horiz-adv-x="299" 
d="M219 -111c-42 0 -80 18 -80 74v199c0 42 -22 79 -72 90v62c52 11 72 35 72 90v191c0 51 36 76 80 76c16 0 24 -1 37 -4l-3 -46c-10 1 -15 1 -25 1c-28 -2 -38 -22 -38 -45v-195c0 -60 -32 -88 -71 -98v-5c39 -11 70 -46 70 -97v-200c0 -26 9 -43 39 -45c10 0 17 0 25 1
l3 -45c-11 -3 -24 -4 -37 -4z" />
    <glyph glyph-name="braceright" unicode="}" horiz-adv-x="299" 
d="M80 -112c-13 0 -26 2 -37 4l3 45c8 -1 16 -1 25 0c30 1 39 18 39 44v200c0 51 31 86 70 97v5c-39 10 -70 38 -70 98v195c0 24 -11 43 -39 45h-25l-3 46c13 2 21 3 37 3c44 0 80 -25 80 -76v-191c0 -54 20 -79 72 -90v-62c-49 -11 -72 -48 -72 -90v-199
c0 -56 -38 -74 -80 -74z" />
    <glyph glyph-name="bracketleft" unicode="[" horiz-adv-x="299" 
d="M115 -115v797h112v-50l-62 -2v-692l62 -3v-50h-112z" />
    <glyph glyph-name="bracketright" unicode="]" horiz-adv-x="299" 
d="M71 -114v50l62 3v692l-62 2v50h112v-797h-112z" />
    <glyph glyph-name="parenleft" unicode="(" horiz-adv-x="260" 
d="M181 -88c-75 113 -112 251 -112 384c0 139 40 277 116 390l41 -27c-71 -104 -108 -234 -108 -363c0 -128 36 -252 105 -357z" />
    <glyph glyph-name="parenright" unicode=")" horiz-adv-x="260" 
d="M79 -88l-42 27c68 105 104 229 104 357c0 129 -36 259 -108 363l42 27c76 -113 115 -251 115 -390c0 -133 -36 -271 -111 -384z" />
    <glyph glyph-name="emdash" unicode="&#x2014;" horiz-adv-x="543" 
d="M85 222l7 47h365l-6 -47h-366z" />
    <glyph glyph-name="endash" unicode="&#x2013;" horiz-adv-x="468" 
d="M85 222l7 47h291l-7 -47h-291z" />
    <glyph glyph-name="uni2015" unicode="&#x2015;" horiz-adv-x="461" 
d="M-2 325v38h462v-38h-462z" />
    <glyph glyph-name="hyphen" unicode="-" horiz-adv-x="379" 
d="M85 230l10 47h199l-10 -47h-199z" />
    <glyph glyph-name="quotedblleft" unicode="&#x201c;" horiz-adv-x="309" 
d="M76 402l-50 6l39 227l41 -4zM240 402l-50 6l39 227l41 -4z" />
    <glyph glyph-name="quotedblright" unicode="&#x201d;" horiz-adv-x="305" 
d="M68 402l-40 3l26 229l50 -5zM232 402l-40 3l26 229l50 -5z" />
    <glyph glyph-name="quoteleft" unicode="&#x2018;" horiz-adv-x="146" 
d="M80 402l-50 6l39 227l41 -4z" />
    <glyph glyph-name="quoteright" unicode="&#x2019;" horiz-adv-x="142" 
d="M76 404l-40 3l26 229l50 -5z" />
    <glyph glyph-name="colon_parenleft.liga" horiz-adv-x="548" 
d="M433 -88c-75 113 -112 251 -112 384c0 139 40 277 116 390l41 -27c-71 -104 -108 -234 -108 -363c0 -128 36 -252 105 -357zM113 412c-22 0 -38 17 -38 38c0 22 16 37 38 37s37 -15 37 -37c0 -21 -15 -38 -37 -38zM114 64c-22 0 -38 17 -38 38c0 22 16 37 38 37
s37 -15 37 -37c0 -21 -15 -38 -37 -38z" />
    <glyph glyph-name="colon_parenright.liga" horiz-adv-x="529" 
d="M348 -88l-42 27c68 105 104 229 104 357c0 129 -36 259 -108 363l42 27c76 -113 115 -251 115 -390c0 -133 -36 -271 -111 -384zM113 410c-22 0 -38 17 -38 38c0 22 16 37 38 37s37 -15 37 -37c0 -21 -15 -38 -37 -38zM114 62c-22 0 -38 17 -38 38c0 22 16 37 38 37
s37 -15 37 -37c0 -21 -15 -38 -37 -38z" />
    <glyph glyph-name="exclam_question.liga" horiz-adv-x="359" 
d="M165 619c106 0 168 -71 168 -161c0 -74 -45 -117 -84 -153c-32 -29 -64 -55 -67 -101c-2 -20 -2 -38 -2 -53l-50 3v27l-7 293l54 5l-3 -179c14 14 29 27 43 40c34 32 66 67 66 116c0 67 -46 115 -116 115c-66 0 -109 -47 -116 -109l-49 12c13 86 77 145 163 145zM161 72
c22 0 37 -15 37 -37c0 -21 -15 -38 -37 -38s-38 17 -38 38c0 22 16 37 38 37z" />
    <glyph glyph-name="semicolon_parenright.liga" horiz-adv-x="521" 
d="M340 -88l-42 27c68 105 104 229 104 357c0 129 -36 259 -108 363l42 27c76 -113 115 -251 115 -390c0 -133 -36 -271 -111 -384zM112 402c-22 0 -38 17 -38 38c0 22 16 37 38 37s37 -15 37 -37c0 -21 -15 -38 -37 -38zM90 1l-48 6l43 219l40 -4z" />
    <glyph glyph-name="space" unicode=" " horiz-adv-x="246" 
 />
    <glyph glyph-name="cent" unicode="&#xa2;" horiz-adv-x="441" 
d="M226 101c66 0 109 48 122 83l40 -24c-19 -45 -67 -94 -134 -105l3 -66l-53 1l4 64c-98 10 -173 99 -173 216v16c0 118 75 206 174 216l-5 66l53 1l-3 -68c68 -11 115 -62 134 -106l-41 -23c-12 34 -55 84 -120 84c-78 0 -143 -69 -143 -170v-16c0 -100 65 -169 142 -169z
" />
    <glyph glyph-name="dollar" unicode="$" horiz-adv-x="455" 
d="M265 305c71 -30 143 -65 143 -159c0 -72 -46 -139 -143 -150v-73h-50v73c-89 11 -141 79 -147 141l47 13c5 -47 41 -93 100 -102v225c-70 30 -139 63 -139 151c0 72 60 129 139 139v71h50v-70c77 -10 134 -65 143 -133l-46 -13c-8 55 -50 88 -97 96v-209zM130 423
c1 -49 38 -75 85 -97v187c-55 -10 -86 -53 -85 -90zM265 48c60 9 91 50 91 100c0 54 -41 81 -91 104v-204z" />
    <glyph glyph-name="Euro" unicode="&#x20ac;" horiz-adv-x="574" 
d="M330 41c74 0 121 39 150 96l41 -19c-35 -76 -103 -123 -190 -123c-96 0 -194 67 -220 204h-60v34h56c-1 12 -2 25 -2 38v18c0 9 0 18 1 26h-55v34h58c22 145 124 216 222 216c86 0 154 -48 190 -121l-41 -21c-29 57 -75 97 -150 97c-72 0 -151 -51 -170 -171h172v-34
h-176c-1 -8 -1 -17 -1 -26v-18c0 -13 1 -26 2 -38h175v-34h-170c23 -110 99 -158 168 -158z" />
    <glyph glyph-name="sterling" unicode="&#xa3;" horiz-adv-x="452" 
d="M389 65l19 -39c-35 -24 -57 -29 -88 -29c-73 0 -98 39 -155 40c-28 1 -58 -11 -94 -35l-28 39c58 48 100 118 99 178c0 21 -4 38 -10 54h-81v42h60c-18 32 -38 65 -38 115c0 94 76 162 167 162c77 0 141 -51 161 -121l-41 -16c-13 52 -62 93 -120 93
c-67 0 -122 -50 -122 -119c0 -46 23 -77 43 -114h142v-42h-124c5 -15 8 -31 8 -49c2 -62 -36 -126 -67 -153v-2c91 37 118 -30 201 -28c24 1 45 6 68 24z" />
    <glyph glyph-name="yen" unicode="&#xa5;" horiz-adv-x="406" 
d="M405 559l-153 -291h100v-35h-116v-81h116v-33h-116v-119h-50v119h-132v33h132v81h-132v35h116l-154 291l51 3l143 -273h2l142 273z" />
    <glyph glyph-name="plus" unicode="+" horiz-adv-x="519" 
d="M443 278v-47h-159v-170h-50v170h-159v47h159v169h50v-169h159z" />
    <glyph glyph-name="minus" unicode="&#x2212;" horiz-adv-x="512" 
d="M77 226v46h357v-46h-357z" />
    <glyph glyph-name="multiply" unicode="&#xd7;" horiz-adv-x="501" 
d="M425 400l-143 -145l143 -146l-33 -32l-142 145l-142 -145l-33 32l143 146l-143 145l33 32l142 -145l142 145z" />
    <glyph glyph-name="divide" unicode="&#xf7;" horiz-adv-x="512" 
d="M249 358c-22 0 -38 17 -38 38c0 22 16 37 38 37s37 -15 37 -37c0 -21 -15 -38 -37 -38zM75 236v43h361v-43h-361zM249 71c-22 0 -38 17 -38 38c0 22 16 37 38 37s37 -15 37 -37c0 -21 -15 -38 -37 -38z" />
    <glyph glyph-name="equal" unicode="=" horiz-adv-x="512" 
d="M76 327v46h357v-46h-357zM75 134v46h357v-46h-357z" />
    <glyph glyph-name="notequal" unicode="&#x2260;" horiz-adv-x="517" 
d="M431 329h-128l-55 -147h182v-46h-199l-39 -104h-46l39 104h-112v46h129l54 147h-182v46h199l40 107h47l-40 -107h111v-46z" />
    <glyph glyph-name="greater" unicode="&#x3e;" horiz-adv-x="410" 
d="M97 1l-34 31l227 251l-230 252l35 31l255 -283z" />
    <glyph glyph-name="less" unicode="&#x3c;" horiz-adv-x="410" 
d="M312 1l-253 282l256 283l34 -31l-229 -252l227 -251z" />
    <glyph glyph-name="asciitilde" unicode="~" horiz-adv-x="453" 
d="M83 220c-15 9 -29 18 -44 28c27 39 60 76 102 76c64 1 111 -59 160 -57c26 1 51 21 68 57c15 -8 29 -17 44 -25c-22 -47 -53 -82 -102 -83c-58 -1 -111 57 -160 57c-26 0 -43 -19 -68 -53z" />
    <glyph glyph-name="infinity" unicode="&#x221e;" horiz-adv-x="1068" 
d="M774 497c116 0 211 -86 211 -207c0 -120 -92 -207 -211 -207c-112 0 -178 79 -237 164c-59 -85 -126 -164 -243 -164c-119 0 -211 87 -211 207c0 122 95 207 211 207c115 0 183 -79 242 -164c59 85 124 164 238 164zM295 131c98 0 155 76 212 159
c-58 83 -116 160 -212 160c-91 0 -165 -67 -165 -160c0 -92 71 -159 165 -159zM773 131c92 0 165 65 165 159c0 91 -72 160 -165 160c-95 0 -151 -76 -207 -160c57 -83 113 -159 207 -159z" />
    <glyph glyph-name="percent" unicode="%" horiz-adv-x="603" 
d="M92 0l371 560h41l-370 -560h-42zM141 330c-56 0 -100 45 -100 100s44 99 100 99c55 0 99 -44 99 -99s-44 -100 -99 -100zM140 369c34 0 61 27 61 61c0 32 -27 60 -61 60c-33 0 -60 -28 -60 -60c0 -34 27 -61 60 -61zM463 30c-56 0 -100 45 -100 100s44 99 100 99
c55 0 99 -44 99 -99s-44 -100 -99 -100zM462 69c34 0 61 27 61 61c0 32 -27 60 -61 60c-33 0 -60 -28 -60 -60c0 -34 27 -61 60 -61z" />
    <glyph glyph-name="at" unicode="@" horiz-adv-x="854" 
d="M810 237v-5c-2 -104 -32 -249 -169 -249c-46 0 -95 18 -112 88c-33 -33 -68 -64 -113 -71c-110 -17 -186 76 -186 222c0 133 77 251 200 222c37 -8 66 -36 93 -68v67l48 -4v-328c1 -50 25 -86 67 -86c113 0 127 146 128 211c-2 190 -145 338 -347 338
c-177 0 -333 -149 -333 -351c0 -210 161 -348 337 -348c85 0 145 22 209 64l14 -42c-69 -44 -142 -67 -223 -66c-199 0 -380 159 -380 393c0 225 176 392 377 392c223 0 385 -163 390 -374v-5zM415 45c39 4 71 28 108 65v220c-28 32 -58 61 -95 69
c-87 18 -146 -66 -146 -177c0 -117 54 -184 133 -177z" />
    <glyph glyph-name="ampersand" unicode="&#x26;" horiz-adv-x="558" 
d="M503 248c-13 -49 -37 -107 -73 -155l49 -93h-54l-29 54c-37 -35 -83 -59 -140 -59c-118 0 -200 80 -200 186c0 99 64 177 173 189l-100 189h298v-48h-218l198 -374c25 40 43 86 53 125zM255 40c49 0 88 23 119 56l-122 231c-103 -5 -151 -73 -151 -145
c1 -78 59 -142 154 -142z" />
    <glyph glyph-name="copyright" unicode="&#xa9;" horiz-adv-x="966" 
d="M483 -103c-213 0 -386 173 -386 385c0 213 173 386 386 386c211 0 385 -173 385 -386c0 -212 -174 -385 -385 -385zM483 -55c186 0 337 151 337 337c0 187 -151 338 -337 338s-338 -151 -338 -338c0 -186 152 -337 338 -337zM481 83c-106 0 -189 89 -189 198
s83 198 189 198c53 0 101 -23 136 -59l-32 -33c-26 27 -61 45 -104 45c-79 0 -145 -67 -145 -151s66 -152 145 -152c39 0 74 17 101 43l32 -33c-34 -34 -81 -56 -133 -56z" />
    <glyph glyph-name="registered" unicode="&#xae;" horiz-adv-x="426" 
d="M215 297c-106 0 -192 85 -192 191c0 103 86 189 192 189c102 0 188 -86 188 -189c0 -106 -86 -191 -188 -191zM214 328c86 0 158 71 158 160c0 86 -72 159 -158 159c-89 0 -160 -73 -160 -159c0 -89 71 -160 160 -160zM167 408v158l38 2c38 3 60 -22 60 -56
c0 -23 -9 -41 -27 -51l32 -53h-32l-29 47h-16v-47h-26zM193 480h22c15 1 23 15 23 31c0 11 0 26 -14 30c-9 3 -21 3 -31 1v-62z" />
    <glyph glyph-name="degree" unicode="&#xb0;" horiz-adv-x="343" 
d="M172 402c-56 0 -100 45 -100 100s44 99 100 99c55 0 99 -44 99 -99s-44 -100 -99 -100zM171 441c34 0 61 27 61 61c0 32 -27 60 -61 60c-33 0 -60 -28 -60 -60c0 -34 27 -61 60 -61z" />
    <glyph glyph-name="bar" unicode="|" horiz-adv-x="261" 
d="M105 -116v804l50 3v-807h-50z" />
    <glyph glyph-name="uni2116" unicode="&#x2116;" horiz-adv-x="876" 
d="M440 88v470h50v-558h-47l-303 475v-475h-50v557l51 3zM694 322c-56 0 -100 45 -100 100s44 99 100 99c55 0 99 -44 99 -99s-44 -100 -99 -100zM693 482c-33 0 -60 -28 -60 -60c0 -34 27 -61 60 -61c34 0 61 27 61 61c0 32 -27 60 -61 60zM595 171h202v-42h-202v42z" />
    <glyph glyph-name="asciicircum" unicode="^" horiz-adv-x="438" 
d="M377 458l-33 -34l-125 126l-125 -121l-33 34l158 150z" />
    <glyph glyph-name="uni0308" unicode="&#x308;" 
d="M-192 553c-22 0 -37 15 -37 37s15 37 37 37s37 -15 37 -37s-15 -37 -37 -37zM-37 552c-22 0 -37 15 -37 37s15 37 37 37s37 -15 37 -37s-15 -37 -37 -37z" />
    <glyph glyph-name="uni0307" unicode="&#x307;" 
d="M-39 540c-22 0 -39 16 -39 39s17 39 39 39c24 0 40 -16 40 -39s-16 -39 -40 -39z" />
    <glyph glyph-name="gravecomb" unicode="&#x300;" 
d="M-19 529l-167 104l29 45l158 -116z" />
    <glyph glyph-name="acutecomb" unicode="&#x301;" 
d="M-167 530l-20 32l158 116l29 -45z" />
    <glyph glyph-name="uni030B" unicode="&#x30b;" 
d="M-151 517l-40 1l11 196l48 -3zM-21 516l-41 2l15 196l48 -4z" />
    <glyph glyph-name="caroncomb.alt" 
d="M-20 230l-38 2l8 210l50 -4z" />
    <glyph glyph-name="uni0302" unicode="&#x302;" 
d="M1 556l-30 -30l-83 79l-80 -79l-31 29l112 107z" />
    <glyph glyph-name="uni030C" unicode="&#x30c;" 
d="M-29 660l30 -30l-112 -106l-112 107l31 29l80 -79z" />
    <glyph glyph-name="uni0306" unicode="&#x306;" 
d="M-114 543c-50 0 -89 29 -115 65l33 27c11 -18 39 -49 82 -49c41 0 68 30 82 49l32 -27c-27 -36 -63 -65 -114 -65z" />
    <glyph glyph-name="uni030A" unicode="&#x30a;" 
d="M-71 522c-41 0 -74 34 -74 73c0 41 33 73 74 73c39 0 71 -32 71 -73c0 -39 -32 -73 -71 -73zM-72 559c21 0 35 16 35 36c0 21 -14 38 -35 38c-20 0 -36 -17 -36 -38c0 -20 16 -36 36 -36z" />
    <glyph glyph-name="tildecomb" unicode="&#x303;" 
d="M-199 551l-38 18c9 24 27 63 65 63c36 0 69 -40 99 -40c19 0 26 11 35 35l39 -17c-7 -20 -24 -63 -68 -63c-42 1 -70 41 -100 41c-17 0 -24 -18 -32 -37z" />
    <glyph glyph-name="uni0304" unicode="&#x304;" 
d="M-201 556v42h202v-42h-202z" />
    <glyph glyph-name="uni0312" unicode="&#x312;" 
d="M-49 693l49 -6l-34 -177l-41 4z" />
    <glyph glyph-name="uni0326" unicode="&#x326;" 
d="M-25 -215l-49 6l33 169l40 -4z" />
    <glyph glyph-name="uni0327" unicode="&#x327;" 
d="M-106 -43c62 10 107 -26 107 -76c0 -58 -43 -88 -94 -88c-53 0 -81 30 -88 45l24 21c7 -10 25 -30 63 -30c30 0 56 19 56 53c0 26 -22 48 -66 49c-15 0 -26 -1 -38 -1l1 79h38z" />
    <glyph glyph-name="uni0328" unicode="&#x328;" 
d="M-215 -66c27 33 50 49 80 71l47 -3c-38 -26 -73 -52 -98 -84c-46 -60 16 -109 73 -60l20 -27c-97 -75 -191 17 -122 103z" />
    <glyph glyph-name="uni0335" unicode="&#x335;" 
d="M-185 282v43h192v-43h-192z" />
    <glyph glyph-name="uni0337" unicode="&#x337;" 
d="M-383 14l-25 23l385 394l24 -24z" />
    <glyph glyph-name="uni0338" unicode="&#x338;" 
d="M-485 26l-30 29l478 491l30 -29z" />
    <glyph glyph-name="uni0307.alt" 
d="M-36 560c-22 0 -37 15 -37 37s15 37 37 37s37 -15 37 -37s-15 -37 -37 -37z" />
    <glyph glyph-name="_f.f.alt" horiz-adv-x="226" 
d="M221 603c41 0 78 -16 102 -41l-24 -30c-15 17 -40 28 -69 28c-44 0 -74 -33 -76 -77v-61h103v-44h-103v-378h-50v378h-55v44h55v61c2 68 47 120 117 120z" />
    </font>
</defs>
</svg>
