<?xml version="1.0" standalone="no"?>
<!DOCTYPE svg PUBLIC "-//W3C//DTD SVG 1.1//EN" "http://www.w3.org/Graphics/SVG/1.1/DTD/svg11.dtd" >
<svg xmlns="http://www.w3.org/2000/svg" xmlns:xlink="http://www.w3.org/1999/xlink" version="1.1">
<metadata>
Created by FontForge 20150824 at Mon Aug 15 22:23:21 2016
 By Everything Fonts
Copyright \(c\) 2015 by Eric Lobdell. All rights reserved.
</metadata>
<defs>
<font id="Affogato-Black" horiz-adv-x="0" >
  <font-face 
    font-family="Affogato Black"
    font-weight="900"
    font-stretch="normal"
    units-per-em="880"
    panose-1="0 0 10 0 0 0 0 0 0 0"
    ascent="704"
    descent="-176"
    x-height="440"
    cap-height="565"
    bbox="-567 -221 927 860"
    underline-thickness="50"
    underline-position="-100"
    unicode-range="U+0020-FB02"
  />
<missing-glyph horiz-adv-x="503" 
d="M412 800v-1005h-319v1005h319zM335 733h-166v-34h65v-37h-66v-33h167v33h-67v37h67v34zM268 603h-100v-105h167v35h-67v70zM234 569v-36h-33v36h33zM335 471h-167v-33h66v-37h-66v-33h100v70h67v33zM335 411h-34v-66h-133v-34h167v100zM335 288h-101v-56h34v23h33v-47
h-100v80h-33v-113h167v113zM335 115h-167v-114h167v114zM301 81v-47h-100v47h100zM335 -22h-167v-33h70l-70 -47v-34h167v34h-103l71 47h32v33z" />
    <glyph glyph-name="fi" unicode="fi" horiz-adv-x="540" 
d="M276 484c-31 0 -51 -14 -53 -46v-8h76v-125h-76v-305h-149l-1 305h-46v125h46v9c0 99 56 162 162 162c49 0 99 -17 131 -40l-41 -83c-10 1 -26 6 -49 6zM348 422l150 8l-1 -430h-150z" />
    <glyph glyph-name="fl" unicode="fl" horiz-adv-x="563" 
d="M514 145c9 -1 19 -1 27 -1v-143c-17 -1 -29 -2 -42 -2c-111 0 -172 39 -172 185l1 300l-3 -6c-10 1 -26 6 -49 6c-31 0 -51 -14 -53 -46v-8h76v-125h-76v-305h-149l-1 305h-46v125h46v9c0 99 56 162 162 162c32 0 65 -7 93 -19v2l150 8l-1 -358c0 -55 4 -85 37 -89z" />
    <glyph glyph-name="f_h.liga" unicode="fh" horiz-adv-x="759" 
d="M573 445c85 12 144 -64 144 -155v-290h-150v248c0 36 -13 64 -49 62c-16 -1 -30 -9 -41 -20v-290h-150v482l-2 -4c-10 1 -26 6 -49 6c-31 0 -51 -14 -53 -46v-8h76v-125h-76v-305h-149l-1 305h-46v125h46v9c0 99 56 162 162 162c32 0 64 -7 92 -19v2l150 8v-216
c25 38 60 64 96 69z" />
    <glyph glyph-name="f_j.liga" unicode="fj" horiz-adv-x="531" 
d="M299 305h-76v-305h-149l-1 305h-46v125h46v9c0 99 56 162 162 162c49 0 99 -17 131 -40l-41 -83c-10 1 -26 6 -49 6c-31 0 -51 -14 -53 -46v-8h76v-125zM341 422l150 8v-422c0 -148 -53 -218 -159 -218c-45 0 -90 17 -105 36l34 123c10 -5 25 -9 39 -8c25 2 41 23 41 66
v415z" />
    <glyph glyph-name="f_t.liga" unicode="ft" horiz-adv-x="566" 
d="M526 305h-66v-71c0 -55 4 -86 36 -89c10 -1 20 -1 28 -1v-143c-17 -1 -29 -2 -42 -2c-111 0 -172 39 -172 185v121h-87v-305h-149l-1 305h-46v125h46v9c0 99 56 162 162 162c49 0 99 -17 131 -40l-1 -1l96 5v-135h65v-125zM311 430v50c-9 2 -21 4 -35 4
c-31 0 -51 -14 -53 -46v-8h88z" />
    <glyph glyph-name="q_j.liga" unicode="qj" horiz-adv-x="725" 
d="M607 470c-48 0 -82 33 -82 83c0 47 34 82 82 82c49 0 83 -35 83 -82c0 -50 -34 -83 -83 -83zM533 7v415l150 8v-422c0 -147 -52 -217 -157 -218c-152 -15 -228 40 -228 220v80c-19 -43 -50 -82 -97 -90c-100 -16 -174 82 -174 210c0 131 80 249 178 231
c50 -9 78 -56 93 -102v105l150 -8v-427c0 -13 -3 -57 28 -67c5 -1 11 -1 16 -1c25 2 41 23 41 66zM239 126c23 0 42 15 59 38v107c-19 27 -40 42 -63 42c-32 0 -54 -42 -54 -105c0 -46 19 -82 58 -82z" />
    <glyph glyph-name=".notdef" horiz-adv-x="503" 
d="M412 800v-1005h-319v1005h319zM335 733h-166v-34h65v-37h-66v-33h167v33h-67v37h67v34zM268 603h-100v-105h167v35h-67v70zM234 569v-36h-33v36h33zM335 471h-167v-33h66v-37h-66v-33h100v70h67v33zM335 411h-34v-66h-133v-34h167v100zM335 288h-101v-56h34v23h33v-47
h-100v80h-33v-113h167v113zM335 115h-167v-114h167v114zM301 81v-47h-100v47h100zM335 -22h-167v-33h70l-70 -47v-34h167v34h-103l71 47h32v33z" />
    <glyph glyph-name="A" unicode="A" horiz-adv-x="552" 
d="M385 0l-22 80h-174l-22 -80h-150l169 554l180 11l169 -565h-150zM226 215h100l-50 186z" />
    <glyph glyph-name="Aacute" unicode="&#xc1;" horiz-adv-x="552" 
d="M471 726l-208 -90l-45 92l186 122zM385 0l-22 80h-174l-22 -80h-150l169 554l180 11l169 -565h-150zM226 215h100l-50 186z" />
    <glyph glyph-name="Abreve" unicode="&#x102;" horiz-adv-x="552" 
d="M276 649c-65 0 -122 36 -152 90l78 67c14 -19 40 -44 74 -44c40 0 59 24 74 44l78 -67c-30 -55 -86 -90 -152 -90zM385 0l-22 80h-174l-22 -80h-150l169 554l180 11l169 -565h-150zM226 215h100l-50 186z" />
    <glyph glyph-name="uni01CD" unicode="&#x1cd;" horiz-adv-x="552" 
d="M422 762l-147 -119l-146 124l75 76l71 -61l75 60zM385 0l-22 80h-174l-22 -80h-150l169 554l180 11l169 -565h-150zM226 215h100l-50 186z" />
    <glyph glyph-name="Acircumflex" unicode="&#xc2;" horiz-adv-x="552" 
d="M275 706l-71 -61l-75 76l146 124l147 -119l-72 -80zM385 0l-22 80h-174l-22 -80h-150l169 554l180 11l169 -565h-150zM226 215h100l-50 186z" />
    <glyph glyph-name="Adieresis" unicode="&#xc4;" horiz-adv-x="552" 
d="M362 664c-39 0 -65 27 -65 67c0 39 26 65 65 65c40 0 67 -26 67 -65c0 -40 -27 -67 -67 -67zM168 663c-39 0 -65 27 -65 67c0 39 26 65 65 65c40 0 67 -26 67 -65c0 -40 -27 -67 -67 -67zM385 0l-22 80h-174l-22 -80h-150l169 554l180 11l169 -565h-150zM226 215h100
l-50 186z" />
    <glyph glyph-name="Agrave" unicode="&#xc0;" horiz-adv-x="552" 
d="M327 727l-46 -92l-208 90l68 124zM385 0l-22 80h-174l-22 -80h-150l169 554l180 11l169 -565h-150zM226 215h100l-50 186z" />
    <glyph glyph-name="Amacron" unicode="&#x100;" horiz-adv-x="552" 
d="M410 776l-1 -115h-267v115h268zM385 0l-22 80h-174l-22 -80h-150l169 554l180 11l169 -565h-150zM226 215h100l-50 186z" />
    <glyph glyph-name="Aogonek" unicode="&#x104;" horiz-adv-x="552" 
d="M425 -69c-22 -33 18 -71 51 -23l56 -61c-68 -94 -204 -53 -195 54c3 41 32 77 77 99h-29l-22 80h-174l-22 -80h-150l169 554l180 11l169 -565c-61 -28 -96 -48 -110 -69zM226 215h100l-50 186z" />
    <glyph glyph-name="Aring" unicode="&#xc5;" horiz-adv-x="552" 
d="M275 627c-66 0 -116 54 -116 117c0 64 50 116 116 116c64 0 117 -52 117 -116c0 -63 -53 -117 -117 -117zM272 776c-17 0 -30 -14 -30 -33c0 -20 13 -33 30 -33c19 0 34 13 34 33c0 19 -15 33 -34 33zM385 0l-22 80h-174l-22 -80h-150l169 554l180 11l169 -565h-150z
M226 215h100l-50 186z" />
    <glyph glyph-name="Atilde" unicode="&#xc3;" horiz-adv-x="552" 
d="M242 692c-16 0 -27 -21 -35 -41l-101 53c9 24 44 99 104 99c42 0 73 -27 97 -27c18 0 25 18 36 42l102 -51c-9 -24 -42 -104 -106 -104c-47 0 -74 29 -97 29zM385 0l-22 80h-174l-22 -80h-150l169 554l180 11l169 -565h-150zM226 215h100l-50 186z" />
    <glyph glyph-name="AE" unicode="&#xc6;" horiz-adv-x="729" 
d="M677 421h-224v-75h150v-140h-150v-66h224v-140h-378v77h-118l-34 -77h-160l272 561l141 -1l277 1v-140zM235 197h64v145z" />
    <glyph glyph-name="B" unicode="B" horiz-adv-x="523" 
d="M62 0v553s214 13 220 13c120 0 166 -81 166 -161c0 -46 -21 -82 -43 -99c53 -32 76 -87 76 -141c0 -123 -107 -165 -165 -165h-254zM211 343h46c24 0 40 17 40 43c0 15 -11 40 -38 40c-16 -1 -32 -1 -48 -2v-81zM211 141h68c23 0 44 15 44 43c0 30 -26 41 -42 41l-70 -1
v-83z" />
    <glyph glyph-name="C" unicode="C" horiz-adv-x="539" 
d="M284 -5c-131 0 -247 96 -247 277v16c0 181 116 277 247 277c90 0 178 -55 214 -154l-135 -53c-15 41 -50 59 -79 59c-49 0 -99 -30 -99 -129v-16c0 -99 50 -129 99 -129c32 0 70 21 82 70l136 -55c-35 -114 -125 -163 -218 -163z" />
    <glyph glyph-name="Cacute" unicode="&#x106;" horiz-adv-x="539" 
d="M271 636l-45 92l186 122l67 -124zM284 -5c-131 0 -247 96 -247 277v16c0 181 116 277 247 277c90 0 178 -55 214 -154l-135 -53c-15 41 -50 59 -79 59c-49 0 -99 -30 -99 -129v-16c0 -99 50 -129 99 -129c32 0 70 21 82 70l136 -55c-35 -114 -125 -163 -218 -163z" />
    <glyph glyph-name="Ccaron" unicode="&#x10c;" horiz-adv-x="539" 
d="M430 762l-147 -119l-146 124l75 76l71 -61l75 60zM366 213l136 -55c-35 -114 -125 -163 -218 -163c-131 0 -247 96 -247 277v16c0 181 116 277 247 277c90 0 178 -55 214 -154l-135 -53c-15 41 -50 59 -79 59c-49 0 -99 -30 -99 -129v-16c0 -99 50 -129 99 -129
c32 0 70 21 82 70z" />
    <glyph glyph-name="Ccedilla" unicode="&#xc7;" horiz-adv-x="539" 
d="M502 158c-33 -106 -112 -156 -198 -162l-6 -24c55 11 101 -26 101 -78c0 -63 -49 -100 -114 -100c-44 0 -76 18 -94 33l43 66c8 -6 21 -14 44 -14c11 0 26 5 26 20c0 25 -27 26 -44 25l-42 -3v83c-102 27 -181 118 -181 268v16c0 181 116 277 247 277
c90 0 178 -55 214 -154l-135 -53c-15 41 -50 59 -79 59c-49 0 -99 -30 -99 -129v-16c0 -99 50 -129 99 -129c32 0 70 21 82 70z" />
    <glyph glyph-name="Cdotaccent" unicode="&#x10a;" horiz-adv-x="539" 
d="M284 624c-48 0 -82 33 -82 83c0 47 34 82 82 82c49 0 83 -35 83 -82c0 -50 -34 -83 -83 -83zM284 -5c-131 0 -247 96 -247 277v16c0 181 116 277 247 277c90 0 178 -55 214 -154l-135 -53c-15 41 -50 59 -79 59c-49 0 -99 -30 -99 -129v-16c0 -99 50 -129 99 -129
c32 0 70 21 82 70l136 -55c-35 -114 -125 -163 -218 -163z" />
    <glyph glyph-name="D" unicode="D" horiz-adv-x="534" 
d="M62 0v554c69 4 137 7 206 11c109 0 224 -98 224 -293c0 -197 -131 -272 -236 -272h-194zM211 148h42c64 0 88 59 88 119c0 73 -19 149 -86 149c-15 -1 -29 -1 -44 -2v-266z" />
    <glyph glyph-name="Eth" unicode="&#xd0;" horiz-adv-x="534" 
d="M103 661v115h268l-1 -115h-267zM62 0v554c69 4 137 7 206 11c109 0 224 -98 224 -293c0 -197 -131 -272 -236 -272h-194zM211 148h42c64 0 88 59 88 119c0 73 -19 149 -86 149c-15 -1 -29 -1 -44 -2v-266z" />
    <glyph glyph-name="Dcaron" unicode="&#x10e;" horiz-adv-x="534" 
d="M383 762l-147 -119l-146 124l75 76l71 -61l75 60zM268 565c109 0 224 -98 224 -293c0 -197 -131 -272 -236 -272h-194v554c69 4 137 7 206 11zM253 148c64 0 88 59 88 119c0 73 -19 149 -86 149c-15 -1 -29 -1 -44 -2v-266h42z" />
    <glyph glyph-name="Dcroat" unicode="&#x110;" horiz-adv-x="534" 
d="M103 661v115h268l-1 -115h-267zM62 0v554c69 4 137 7 206 11c109 0 224 -98 224 -293c0 -197 -131 -272 -236 -272h-194zM211 148h42c64 0 88 59 88 119c0 73 -19 149 -86 149c-15 -1 -29 -1 -44 -2v-266z" />
    <glyph glyph-name="E" unicode="E" horiz-adv-x="486" 
d="M434 421h-224v-75h150v-140h-150v-66h224v-140h-372v560l372 1v-140z" />
    <glyph glyph-name="Eacute" unicode="&#xc9;" horiz-adv-x="486" 
d="M438 726l-208 -90l-45 92l186 122zM62 0v560l372 1v-140h-224v-75h150v-140h-150v-66h224v-140h-372z" />
    <glyph glyph-name="Ecaron" unicode="&#x11a;" horiz-adv-x="486" 
d="M389 762l-147 -119l-146 124l75 76l71 -61l75 60zM434 421h-224v-75h150v-140h-150v-66h224v-140h-372v560l372 1v-140z" />
    <glyph glyph-name="Ecircumflex" unicode="&#xca;" horiz-adv-x="486" 
d="M242 706l-71 -61l-75 76l146 124l147 -119l-72 -80zM434 421h-224v-75h150v-140h-150v-66h224v-140h-372v560l372 1v-140z" />
    <glyph glyph-name="Edieresis" unicode="&#xcb;" horiz-adv-x="486" 
d="M329 664c-39 0 -65 27 -65 67c0 39 26 65 65 65c40 0 67 -26 67 -65c0 -40 -27 -67 -67 -67zM135 663c-39 0 -65 27 -65 67c0 39 26 65 65 65c40 0 67 -26 67 -65c0 -40 -27 -67 -67 -67zM434 421h-224v-75h150v-140h-150v-66h224v-140h-372v560l372 1v-140z" />
    <glyph glyph-name="Edotaccent" unicode="&#x116;" horiz-adv-x="486" 
d="M243 624c-48 0 -82 33 -82 83c0 47 34 82 82 82c49 0 83 -35 83 -82c0 -50 -34 -83 -83 -83zM434 421h-224v-75h150v-140h-150v-66h224v-140h-372v560l372 1v-140z" />
    <glyph glyph-name="Egrave" unicode="&#xc8;" horiz-adv-x="486" 
d="M294 727l-46 -92l-208 90l68 124zM434 421h-224v-75h150v-140h-150v-66h224v-140h-372v560l372 1v-140z" />
    <glyph glyph-name="Emacron" unicode="&#x112;" horiz-adv-x="486" 
d="M377 776l-1 -115h-267v115h268zM434 421h-224v-75h150v-140h-150v-66h224v-140h-372v560l372 1v-140z" />
    <glyph glyph-name="Eogonek" unicode="&#x118;" horiz-adv-x="486" 
d="M434 421h-224v-75h150v-140h-150v-66h224v-140h-2c-60 -27 -94 -47 -108 -68c-22 -33 18 -71 51 -23l56 -61c-68 -94 -204 -53 -195 54c3 40 31 76 75 98h-249v560l372 1v-140z" />
    <glyph glyph-name="F" unicode="F" horiz-adv-x="449" 
d="M437 420h-225v-97h155v-140h-155v-183h-150v560h375v-140z" />
    <glyph glyph-name="G" unicode="G" horiz-adv-x="564" 
d="M284 -5c-131 0 -247 96 -247 277v16c0 181 116 277 247 277c104 0 193 -67 225 -161l-143 -39c-14 30 -36 62 -82 62c-49 0 -99 -30 -99 -139v-16c0 -109 50 -139 99 -139c50 0 78 33 79 58v3h-88v130h247v-92c0 -141 -107 -237 -238 -237z" />
    <glyph glyph-name="Gbreve" unicode="&#x11e;" horiz-adv-x="564" 
d="M284 649c-65 0 -122 36 -152 90l78 67c14 -19 40 -44 74 -44c40 0 59 24 74 44l78 -67c-30 -55 -86 -90 -152 -90zM284 -5c-131 0 -247 96 -247 277v16c0 181 116 277 247 277c104 0 193 -67 225 -161l-143 -39c-14 30 -36 62 -82 62c-49 0 -99 -30 -99 -139v-16
c0 -109 50 -139 99 -139c50 0 78 33 79 58v3h-88v130h247v-92c0 -141 -107 -237 -238 -237z" />
    <glyph glyph-name="Gcommaaccent" unicode="&#x122;" horiz-adv-x="564" 
d="M284 -5c-131 0 -247 96 -247 277v16c0 181 116 277 247 277c104 0 193 -67 225 -161l-143 -39c-14 30 -36 62 -82 62c-49 0 -99 -30 -99 -139v-16c0 -109 50 -139 99 -139c50 0 78 33 79 58v3h-88v130h247v-92c0 -141 -107 -237 -238 -237zM318 -221l-140 15l37 172
l113 -9z" />
    <glyph glyph-name="Gdotaccent" unicode="&#x120;" horiz-adv-x="564" 
d="M284 624c-48 0 -82 33 -82 83c0 47 34 82 82 82c49 0 83 -35 83 -82c0 -50 -34 -83 -83 -83zM284 -5c-131 0 -247 96 -247 277v16c0 181 116 277 247 277c104 0 193 -67 225 -161l-143 -39c-14 30 -36 62 -82 62c-49 0 -99 -30 -99 -139v-16c0 -109 50 -139 99 -139
c50 0 78 33 79 58v3h-88v130h247v-92c0 -141 -107 -237 -238 -237z" />
    <glyph glyph-name="H" unicode="H" horiz-adv-x="542" 
d="M330 560h150v-560h-150v176h-118v-176h-150v555l150 8v-237h118v234z" />
    <glyph glyph-name="Hbar" unicode="&#x126;" horiz-adv-x="542" 
d="M544 465v-65h-64v-400h-150v176h-118v-176h-150v400h-64v65h64v90l150 8v-98h118v95h150v-95h64zM330 326v74h-118v-74h118z" />
    <glyph glyph-name="I" unicode="I" horiz-adv-x="274" 
d="M212 565v-565h-150v558z" />
    <glyph glyph-name="IJ" unicode="&#x132;" horiz-adv-x="646" 
d="M62 0v558l150 7v-565h-150zM349 558l240 7v-345c0 -158 -81 -225 -173 -225c-65 0 -113 31 -130 52l57 107c6 -3 24 -14 48 -13c34 1 48 27 48 74v204h-90v139z" />
    <glyph glyph-name="Iacute" unicode="&#xcd;" horiz-adv-x="274" 
d="M124 636l-45 92l186 122l67 -124zM212 565v-565h-150v558z" />
    <glyph glyph-name="uni01CF" unicode="&#x1cf;" horiz-adv-x="274" 
d="M283 762l-147 -119l-146 124l75 76l71 -61l75 60zM62 0v558l150 7v-565h-150z" />
    <glyph glyph-name="Icircumflex" unicode="&#xce;" horiz-adv-x="274" 
d="M136 706l-71 -61l-75 76l146 124l147 -119l-72 -80zM62 0v558l150 7v-565h-150z" />
    <glyph glyph-name="Idieresis" unicode="&#xcf;" horiz-adv-x="274" 
d="M223 664c-39 0 -65 27 -65 67c0 39 26 65 65 65c40 0 67 -26 67 -65c0 -40 -27 -67 -67 -67zM29 663c-39 0 -65 27 -65 67c0 39 26 65 65 65c40 0 67 -26 67 -65c0 -40 -27 -67 -67 -67zM212 565v-565h-150v558z" />
    <glyph glyph-name="Idotaccent" unicode="&#x130;" horiz-adv-x="274" 
d="M137 624c-48 0 -82 33 -82 83c0 47 34 82 82 82c49 0 83 -35 83 -82c0 -50 -34 -83 -83 -83zM212 565v-565h-150v558z" />
    <glyph glyph-name="Igrave" unicode="&#xcc;" horiz-adv-x="274" 
d="M142 635l-208 90l68 124l186 -122zM212 565v-565h-150v558z" />
    <glyph glyph-name="Imacron" unicode="&#x12a;" horiz-adv-x="274" 
d="M3 661v115h268l-1 -115h-267zM212 565v-565h-150v558z" />
    <glyph glyph-name="Iogonek" unicode="&#x12e;" horiz-adv-x="274" 
d="M212 0c-61 -28 -96 -48 -110 -69c-22 -33 18 -71 51 -23l56 -61c-68 -94 -204 -53 -195 54c3 41 32 77 77 99h-29v558l150 7v-565z" />
    <glyph glyph-name="J" unicode="J" horiz-adv-x="372" 
d="M75 558l240 7v-345c0 -158 -81 -225 -173 -225c-65 0 -113 31 -130 52l57 107c6 -3 24 -14 48 -13c34 1 48 27 48 74v204h-90v139z" />
    <glyph glyph-name="K" unicode="K" horiz-adv-x="538" 
d="M361 0l-99 198l-50 -71v-127h-150v557l150 9v-199l136 193h170l-163 -231l176 -329h-170z" />
    <glyph glyph-name="Kcommaaccent" unicode="&#x136;" horiz-adv-x="538" 
d="M355 329l176 -329h-170l-99 198l-50 -71v-127h-150v557l150 9v-199l136 193h170zM188 -206l37 172l113 -9l-10 -178z" />
    <glyph glyph-name="L" unicode="L" horiz-adv-x="415" 
d="M212 140h156v-140h-306v556l150 9v-425z" />
    <glyph glyph-name="Lacute" unicode="&#x139;" horiz-adv-x="415" 
d="M335 726l-208 -90l-45 92l186 122zM212 140h156v-140h-306v556l150 9v-425z" />
    <glyph glyph-name="Lcaron" unicode="&#x13d;" horiz-adv-x="415" 
d="M291 570l137 -7l-25 -206l-105 2zM212 565v-425h156v-140h-306v556z" />
    <glyph glyph-name="Lcommaaccent" unicode="&#x13b;" horiz-adv-x="415" 
d="M212 140h156v-140h-306v556l150 9v-425zM115 -206l37 172l113 -9l-10 -178z" />
    <glyph glyph-name="Ldot" unicode="&#x13f;" horiz-adv-x="412" 
d="M212 565v-425h156v-140h-306v556zM384 444c40 0 67 -26 67 -65c0 -40 -27 -67 -67 -67c-39 0 -65 27 -65 67c0 39 26 65 65 65z" />
    <glyph glyph-name="Lslash" unicode="&#x141;" horiz-adv-x="415" 
d="M212 140h156v-140h-306v203l-56 -53l-59 60l115 108v238l150 9v-106l54 51l60 -60l-114 -107v-203z" />
    <glyph glyph-name="M" unicode="M" horiz-adv-x="692" 
d="M480 564l150 -9v-555h-150v280l-92 -171h-85l-91 171v-280h-150v555l150 9l134 -240z" />
    <glyph glyph-name="N" unicode="N" horiz-adv-x="574" 
d="M362 560h150v-560h-135l-165 279v-279h-150v555l135 9l165 -288v284z" />
    <glyph glyph-name="Nacute" unicode="&#x143;" horiz-adv-x="574" 
d="M487 696l-208 -90l-45 92l186 122zM362 560h150v-560h-135l-165 279v-279h-150v555l135 9l165 -288v284z" />
    <glyph glyph-name="Ncaron" unicode="&#x147;" horiz-adv-x="574" 
d="M438 732l-147 -119l-146 124l75 76l71 -61l75 60zM362 560h150v-560h-135l-165 279v-279h-150v555l135 9l165 -288v284z" />
    <glyph glyph-name="Ncommaaccent" unicode="&#x145;" horiz-adv-x="574" 
d="M362 560h150v-560h-135l-165 279v-279h-150v555l135 9l165 -288v284zM191 -206l37 172l113 -9l-10 -178z" />
    <glyph glyph-name="Eng" unicode="&#x14a;" horiz-adv-x="574" 
d="M362 560h150v-596c0 -118 -73 -178 -169 -178c-55 0 -80 17 -95 26l34 130c11 -3 15 -6 39 -5c25 1 41 23 41 66v22l-150 254v-279h-150v555l135 9l165 -288v284z" />
    <glyph glyph-name="Ntilde" unicode="&#xd1;" horiz-adv-x="574" 
d="M258 662c-16 0 -27 -21 -35 -41l-101 53c9 24 44 99 104 99c42 0 73 -27 97 -27c18 0 25 18 36 42l102 -51c-9 -24 -42 -104 -106 -104c-47 0 -74 29 -97 29zM362 560h150v-560h-135l-165 279v-279h-150v555l135 9l165 -288v284z" />
    <glyph glyph-name="O" unicode="O" horiz-adv-x="569" 
d="M284 -5c-131 0 -242 96 -242 277v16c0 181 111 277 242 277s243 -96 243 -277v-16c0 -181 -112 -277 -243 -277zM284 133c49 0 95 30 95 139v16c0 109 -46 139 -95 139s-94 -30 -94 -139v-16c0 -109 45 -139 94 -139z" />
    <glyph glyph-name="Oacute" unicode="&#xd3;" horiz-adv-x="569" 
d="M272 636l-45 92l186 122l67 -124zM284 -5c-131 0 -242 96 -242 277v16c0 181 111 277 242 277s243 -96 243 -277v-16c0 -181 -112 -277 -243 -277zM284 133c49 0 95 30 95 139v16c0 109 -46 139 -95 139s-94 -30 -94 -139v-16c0 -109 45 -139 94 -139z" />
    <glyph glyph-name="uni01D1" unicode="&#x1d1;" horiz-adv-x="569" 
d="M431 762l-147 -119l-146 124l75 76l71 -61l75 60zM284 565c131 0 243 -96 243 -277v-16c0 -181 -112 -277 -243 -277s-242 96 -242 277v16c0 181 111 277 242 277zM379 272v16c0 109 -46 139 -95 139s-94 -30 -94 -139v-16c0 -109 45 -139 94 -139s95 30 95 139z" />
    <glyph glyph-name="Ocircumflex" unicode="&#xd4;" horiz-adv-x="569" 
d="M284 706l-71 -61l-75 76l146 124l147 -119l-72 -80zM284 565c131 0 243 -96 243 -277v-16c0 -181 -112 -277 -243 -277s-242 96 -242 277v16c0 181 111 277 242 277zM379 272v16c0 109 -46 139 -95 139s-94 -30 -94 -139v-16c0 -109 45 -139 94 -139s95 30 95 139z" />
    <glyph glyph-name="Odieresis" unicode="&#xd6;" horiz-adv-x="569" 
d="M371 664c-39 0 -65 27 -65 67c0 39 26 65 65 65c40 0 67 -26 67 -65c0 -40 -27 -67 -67 -67zM177 663c-39 0 -65 27 -65 67c0 39 26 65 65 65c40 0 67 -26 67 -65c0 -40 -27 -67 -67 -67zM284 -5c-131 0 -242 96 -242 277v16c0 181 111 277 242 277s243 -96 243 -277v-16
c0 -181 -112 -277 -243 -277zM284 133c49 0 95 30 95 139v16c0 109 -46 139 -95 139s-94 -30 -94 -139v-16c0 -109 45 -139 94 -139z" />
    <glyph glyph-name="Ograve" unicode="&#xd2;" horiz-adv-x="569" 
d="M290 635l-208 90l68 124l186 -122zM284 -5c-131 0 -242 96 -242 277v16c0 181 111 277 242 277s243 -96 243 -277v-16c0 -181 -112 -277 -243 -277zM284 133c49 0 95 30 95 139v16c0 109 -46 139 -95 139s-94 -30 -94 -139v-16c0 -109 45 -139 94 -139z" />
    <glyph glyph-name="Ohungarumlaut" unicode="&#x150;" horiz-adv-x="569" 
d="M247 634l-115 -2l-7 220l137 -6zM415 630l-115 2l7 216l137 -7zM284 -5c-131 0 -242 96 -242 277v16c0 181 111 277 242 277s243 -96 243 -277v-16c0 -181 -112 -277 -243 -277zM284 133c49 0 95 30 95 139v16c0 109 -46 139 -95 139s-94 -30 -94 -139v-16
c0 -109 45 -139 94 -139z" />
    <glyph glyph-name="Omacron" unicode="&#x14c;" horiz-adv-x="569" 
d="M151 661v115h268l-1 -115h-267zM284 -5c-131 0 -242 96 -242 277v16c0 181 111 277 242 277s243 -96 243 -277v-16c0 -181 -112 -277 -243 -277zM284 133c49 0 95 30 95 139v16c0 109 -46 139 -95 139s-94 -30 -94 -139v-16c0 -109 45 -139 94 -139z" />
    <glyph glyph-name="Oslash" unicode="&#xd8;" horiz-adv-x="569" 
d="M564 501l-66 -69c18 -39 29 -87 29 -143v-16c0 -181 -112 -278 -243 -278c-58 0 -112 19 -155 56l-56 -58l-75 75l69 71c-16 38 -25 83 -25 134v16c0 181 111 277 242 277c55 0 106 -17 147 -49l57 59zM190 309v-42l153 159c-16 16 -37 22 -59 22c-49 0 -94 -30 -94 -139
zM379 309v1l-161 -167c18 -21 41 -29 66 -29c49 0 95 30 95 139v56z" />
    <glyph glyph-name="Otilde" unicode="&#xd5;" horiz-adv-x="569" 
d="M216 651l-101 53c9 24 44 99 104 99c42 0 73 -27 97 -27c18 0 25 18 36 42l102 -51c-9 -24 -42 -104 -106 -104c-47 0 -74 29 -97 29c-16 0 -27 -21 -35 -41zM284 -5c-131 0 -242 96 -242 277v16c0 181 111 277 242 277s243 -96 243 -277v-16c0 -181 -112 -277 -243 -277
zM284 133c49 0 95 30 95 139v16c0 109 -46 139 -95 139s-94 -30 -94 -139v-16c0 -109 45 -139 94 -139z" />
    <glyph glyph-name="OE" unicode="&#x152;" horiz-adv-x="880" 
d="M828 421h-224v-75h150v-140h-150v-66h224v-140h-372v85c-41 -59 -104 -90 -172 -90c-131 0 -242 96 -242 277v16c0 181 111 277 242 277c68 0 131 -31 172 -90v85l372 1v-140zM379 272v16c0 109 -46 139 -95 139s-94 -30 -94 -139v-16c0 -109 45 -139 94 -139
s95 30 95 139z" />
    <glyph glyph-name="P" unicode="P" horiz-adv-x="481" 
d="M261 565c98 0 198 -76 198 -209c0 -113 -72 -202 -187 -205h-61v-151h-149v554c66 4 133 7 199 11zM211 285h39c28 0 60 23 60 62c0 37 -15 70 -61 70l-38 -3v-129z" />
    <glyph glyph-name="Thorn" unicode="&#xde;" horiz-adv-x="499" 
d="M297 512c102 26 175 -87 175 -228c0 -144 -89 -249 -196 -213c-24 8 -46 28 -64 53v-124h-150v558l150 7v-135c19 37 46 72 85 82zM254 187c38 0 62 35 62 97c0 58 -18 103 -57 103c-15 0 -31 -14 -47 -35v-141c14 -14 28 -24 42 -24z" />
    <glyph glyph-name="Q" unicode="Q" horiz-adv-x="573" 
d="M496 134l55 -134h-267c-131 0 -242 96 -242 277v11c0 181 111 277 242 277s242 -96 242 -277v-11c0 -55 -11 -103 -30 -143zM190 277c0 -117 45 -149 94 -149h7c46 3 87 38 87 149v11c0 117 -45 149 -94 149s-94 -32 -94 -149v-11z" />
    <glyph glyph-name="R" unicode="R" horiz-adv-x="511" 
d="M489 0h-171l-87 151h-20v-151h-149v554c66 4 133 7 199 11c98 0 198 -76 198 -209c0 -71 -28 -133 -78 -169zM211 414v-129h39c28 0 60 23 60 62c0 37 -15 70 -61 70z" />
    <glyph glyph-name="Racute" unicode="&#x154;" horiz-adv-x="511" 
d="M431 726l-208 -90l-45 92l186 122zM489 0h-171l-87 151h-20v-151h-149v554c66 4 133 7 199 11c98 0 198 -76 198 -209c0 -71 -28 -133 -78 -169zM211 414v-129h39c28 0 60 23 60 62c0 37 -15 70 -61 70z" />
    <glyph glyph-name="Rcaron" unicode="&#x158;" horiz-adv-x="511" 
d="M382 762l-147 -119l-146 124l75 76l71 -61l75 60zM489 0h-171l-87 151h-20v-151h-149v554c66 4 133 7 199 11c98 0 198 -76 198 -209c0 -71 -28 -133 -78 -169zM211 414v-129h39c28 0 60 23 60 62c0 37 -15 70 -61 70z" />
    <glyph glyph-name="Rcommaaccent" unicode="&#x156;" horiz-adv-x="511" 
d="M381 187l108 -187h-171l-87 151h-20v-151h-149v554c66 4 133 7 199 11c98 0 198 -76 198 -209c0 -71 -28 -133 -78 -169zM211 414v-129h39c28 0 60 23 60 62c0 37 -15 70 -61 70zM157 -206l37 172l113 -9l-10 -178z" />
    <glyph glyph-name="S" unicode="S" horiz-adv-x="458" 
d="M234 -5c-91 0 -175 56 -195 158l145 40c6 -31 28 -45 45 -45c15 0 33 9 32 32c-3 59 -224 47 -224 214c0 95 82 171 187 171c99 0 184 -69 196 -152l-136 -37c-12 31 -33 42 -51 42c-19 0 -33 -14 -28 -33c13 -47 216 -28 216 -213c0 -105 -83 -177 -187 -177z" />
    <glyph glyph-name="Sacute" unicode="&#x15a;" horiz-adv-x="458" 
d="M216 636l-45 92l186 122l67 -124zM234 -5c-91 0 -175 56 -195 158l145 40c6 -31 28 -45 45 -45c15 0 33 9 32 32c-3 59 -224 47 -224 214c0 95 82 171 187 171c99 0 184 -69 196 -152l-136 -37c-12 31 -33 42 -51 42c-19 0 -33 -14 -28 -33c13 -47 216 -28 216 -213
c0 -105 -83 -177 -187 -177z" />
    <glyph glyph-name="Scaron" unicode="&#x160;" horiz-adv-x="458" 
d="M375 762l-147 -119l-146 124l75 76l71 -61l75 60zM205 385c13 -47 216 -28 216 -213c0 -105 -83 -177 -187 -177c-91 0 -175 56 -195 158l145 40c6 -31 28 -45 45 -45c15 0 33 9 32 32c-3 59 -224 47 -224 214c0 95 82 171 187 171c99 0 184 -69 196 -152l-136 -37
c-12 31 -33 42 -51 42c-19 0 -33 -14 -28 -33z" />
    <glyph glyph-name="Scedilla" unicode="&#x15e;" horiz-adv-x="458" 
d="M271 -37c55 11 101 -26 101 -78c0 -63 -49 -100 -114 -100c-44 0 -76 18 -94 33l43 66c8 -6 21 -14 44 -14c11 0 26 5 26 20c0 25 -27 26 -44 25l-42 -3v87c-73 15 -135 68 -152 154l145 40c6 -31 28 -45 45 -45c15 0 33 9 32 32c-3 59 -224 47 -224 214
c0 95 82 171 187 171c99 0 184 -69 196 -152l-136 -37c-12 31 -33 42 -51 42c-19 0 -33 -14 -28 -33c13 -47 216 -28 216 -213c0 -89 -60 -154 -141 -172z" />
    <glyph glyph-name="Scommaaccent" unicode="&#x218;" horiz-adv-x="458" 
d="M234 -5c-91 0 -175 56 -195 158l145 40c6 -31 28 -45 45 -45c15 0 33 9 32 32c-3 59 -224 47 -224 214c0 95 82 171 187 171c99 0 184 -69 196 -152l-136 -37c-12 31 -33 42 -51 42c-19 0 -33 -14 -28 -33c13 -47 216 -28 216 -213c0 -105 -83 -177 -187 -177zM281 -220
l-140 15l37 172l113 -9z" />
    <glyph glyph-name="T" unicode="T" horiz-adv-x="415" 
d="M403 560v-145h-121v-415h-150v415h-120v145h391z" />
    <glyph glyph-name="Tbar" unicode="&#x166;" horiz-adv-x="415" 
d="M342 776l-1 -115h-267v115h268zM403 560v-145h-121v-415h-150v415h-120v145h391z" />
    <glyph glyph-name="Tcaron" unicode="&#x164;" horiz-adv-x="415" 
d="M354 762l-147 -119l-146 124l75 76l71 -61l75 60zM403 560v-145h-121v-415h-150v415h-120v145h391z" />
    <glyph glyph-name="uni0162" unicode="&#x162;" horiz-adv-x="415" 
d="M282 0h-26l-9 -38c55 11 101 -26 101 -78c0 -63 -49 -100 -114 -100c-44 0 -76 18 -94 33l43 66c8 -6 21 -14 44 -14c11 0 26 5 26 20c0 25 -27 26 -44 25l-42 -3v89h-35v415h-120v145h391v-145h-121v-415z" />
    <glyph glyph-name="uni021A" unicode="&#x21a;" horiz-adv-x="415" 
d="M403 560v-145h-121v-415h-150v415h-120v145h391zM117 -206l37 172l113 -9l-10 -178z" />
    <glyph glyph-name="U" unicode="U" horiz-adv-x="539" 
d="M271 -3c-122 0 -221 77 -222 229l-2 327l148 8l2 -323c0 -64 33 -93 74 -93c44 0 73 31 73 93l-2 322h148l2 -334c0 -152 -99 -229 -221 -229z" />
    <glyph glyph-name="Uacute" unicode="&#xda;" horiz-adv-x="539" 
d="M257 636l-45 92l186 122l67 -124zM271 -3c-122 0 -221 77 -222 229l-2 327l148 8l2 -323c0 -64 33 -93 74 -93c44 0 73 31 73 93l-2 322h148l2 -334c0 -152 -99 -229 -221 -229z" />
    <glyph glyph-name="uni01D3" unicode="&#x1d3;" horiz-adv-x="539" 
d="M416 762l-147 -119l-146 124l75 76l71 -61l75 60zM490 560l2 -334c0 -152 -99 -229 -221 -229s-221 77 -222 229l-2 327l148 8l2 -323c0 -64 33 -93 74 -93c44 0 73 31 73 93l-2 322h148z" />
    <glyph glyph-name="Ucircumflex" unicode="&#xdb;" horiz-adv-x="539" 
d="M269 706l-71 -61l-75 76l146 124l147 -119l-72 -80zM490 560l2 -334c0 -152 -99 -229 -221 -229s-221 77 -222 229l-2 327l148 8l2 -323c0 -64 33 -93 74 -93c44 0 73 31 73 93l-2 322h148z" />
    <glyph glyph-name="Udieresis" unicode="&#xdc;" horiz-adv-x="539" 
d="M356 664c-39 0 -65 27 -65 67c0 39 26 65 65 65c40 0 67 -26 67 -65c0 -40 -27 -67 -67 -67zM162 663c-39 0 -65 27 -65 67c0 39 26 65 65 65c40 0 67 -26 67 -65c0 -40 -27 -67 -67 -67zM271 -3c-122 0 -221 77 -222 229l-2 327l148 8l2 -323c0 -64 33 -93 74 -93
c44 0 73 31 73 93l-2 322h148l2 -334c0 -152 -99 -229 -221 -229z" />
    <glyph glyph-name="Ugrave" unicode="&#xd9;" horiz-adv-x="539" 
d="M275 635l-208 90l68 124l186 -122zM271 -3c-122 0 -221 77 -222 229l-2 327l148 8l2 -323c0 -64 33 -93 74 -93c44 0 73 31 73 93l-2 322h148l2 -334c0 -152 -99 -229 -221 -229z" />
    <glyph glyph-name="Uhungarumlaut" unicode="&#x170;" horiz-adv-x="539" 
d="M232 634l-115 -2l-7 220l137 -6zM400 630l-115 2l7 216l137 -7zM271 -3c-122 0 -221 77 -222 229l-2 327l148 8l2 -323c0 -64 33 -93 74 -93c44 0 73 31 73 93l-2 322h148l2 -334c0 -152 -99 -229 -221 -229z" />
    <glyph glyph-name="Umacron" unicode="&#x16a;" horiz-adv-x="539" 
d="M136 661v115h268l-1 -115h-267zM271 -3c-122 0 -221 77 -222 229l-2 327l148 8l2 -323c0 -64 33 -93 74 -93c44 0 73 31 73 93l-2 322h148l2 -334c0 -152 -99 -229 -221 -229z" />
    <glyph glyph-name="Uogonek" unicode="&#x172;" horiz-adv-x="539" 
d="M340 6c-61 -28 -96 -48 -110 -69c-22 -33 18 -71 51 -23l56 -61c-68 -94 -204 -53 -195 54c3 39 30 74 71 96c-94 21 -163 96 -164 223l-2 327l148 8l2 -323c0 -64 33 -93 74 -93c44 0 73 31 73 93l-2 322h148l2 -334c0 -122 -64 -196 -152 -220z" />
    <glyph glyph-name="Uring" unicode="&#x16e;" horiz-adv-x="539" 
d="M269 627c-66 0 -116 54 -116 117c0 64 50 116 116 116c64 0 117 -52 117 -116c0 -63 -53 -117 -117 -117zM266 710c19 0 34 13 34 33c0 19 -15 33 -34 33c-17 0 -30 -14 -30 -33c0 -20 13 -33 30 -33zM271 -3c-122 0 -221 77 -222 229l-2 327l148 8l2 -323
c0 -64 33 -93 74 -93c44 0 73 31 73 93l-2 322h148l2 -334c0 -152 -99 -229 -221 -229z" />
    <glyph glyph-name="V" unicode="V" horiz-adv-x="533" 
d="M371 566l155 -9l-184 -557h-151l-184 557l155 9l105 -363z" />
    <glyph glyph-name="W" unicode="W" horiz-adv-x="703" 
d="M536 565l150 -9l-119 -556h-130l-85 267l-86 -267h-130l-119 556l150 9l54 -300l80 285h100l80 -288z" />
    <glyph glyph-name="Wacute" unicode="&#x1e82;" horiz-adv-x="703" 
d="M547 726l-208 -90l-45 92l186 122zM536 565l150 -9l-119 -556h-130l-85 267l-86 -267h-130l-119 556l150 9l54 -300l80 285h100l80 -288z" />
    <glyph glyph-name="Wcircumflex" unicode="&#x174;" horiz-adv-x="703" 
d="M351 706l-71 -61l-75 76l146 124l147 -119l-72 -80zM536 565l150 -9l-119 -556h-130l-85 267l-86 -267h-130l-119 556l150 9l54 -300l80 285h100l80 -288z" />
    <glyph glyph-name="Wdieresis" unicode="&#x1e84;" horiz-adv-x="703" 
d="M438 664c-39 0 -65 27 -65 67c0 39 26 65 65 65c40 0 67 -26 67 -65c0 -40 -27 -67 -67 -67zM244 663c-39 0 -65 27 -65 67c0 39 26 65 65 65c40 0 67 -26 67 -65c0 -40 -27 -67 -67 -67zM536 565l150 -9l-119 -556h-130l-85 267l-86 -267h-130l-119 556l150 9l54 -300
l80 285h100l80 -288z" />
    <glyph glyph-name="Wgrave" unicode="&#x1e80;" horiz-adv-x="703" 
d="M403 727l-46 -92l-208 90l68 124zM536 565l150 -9l-119 -556h-130l-85 267l-86 -267h-130l-119 556l150 9l54 -300l80 285h100l80 -288z" />
    <glyph glyph-name="X" unicode="X" horiz-adv-x="583" 
d="M566 0h-162l-112 176l-113 -176h-162l190 286l-182 274h162l105 -164l105 164h162l-182 -275z" />
    <glyph glyph-name="Y" unicode="Y" horiz-adv-x="496" 
d="M494 556l-171 -337v-219h-150v219l-171 337l155 10l91 -210l91 210z" />
    <glyph glyph-name="Yacute" unicode="&#xdd;" horiz-adv-x="496" 
d="M443 716l-208 -90l-45 92l186 122zM494 556l-171 -337v-219h-150v219l-171 337l155 10l91 -210l91 210z" />
    <glyph glyph-name="Ycircumflex" unicode="&#x176;" horiz-adv-x="496" 
d="M247 696l-71 -61l-75 76l146 124l147 -119l-72 -80zM494 556l-171 -337v-219h-150v219l-171 337l155 10l91 -210l91 210z" />
    <glyph glyph-name="Ydieresis" unicode="&#x178;" horiz-adv-x="496" 
d="M334 654c-39 0 -65 27 -65 67c0 39 26 65 65 65c40 0 67 -26 67 -65c0 -40 -27 -67 -67 -67zM140 653c-39 0 -65 27 -65 67c0 39 26 65 65 65c40 0 67 -26 67 -65c0 -40 -27 -67 -67 -67zM494 556l-171 -337v-219h-150v219l-171 337l155 10l91 -210l91 210z" />
    <glyph glyph-name="Ygrave" unicode="&#x1ef2;" horiz-adv-x="496" 
d="M299 717l-46 -92l-208 90l68 124zM494 556l-171 -337v-219h-150v219l-171 337l155 10l91 -210l91 210z" />
    <glyph glyph-name="Z" unicode="Z" horiz-adv-x="504" 
d="M452 560v-145l-218 -275h218v-140h-400v144l222 276h-221v140h399z" />
    <glyph glyph-name="Zacute" unicode="&#x179;" horiz-adv-x="504" 
d="M447 726l-208 -90l-45 92l186 122zM452 560v-145l-218 -275h218v-140h-400v144l222 276h-221v140h399z" />
    <glyph glyph-name="Zcaron" unicode="&#x17d;" horiz-adv-x="504" 
d="M398 762l-147 -119l-146 124l75 76l71 -61l75 60zM452 560v-145l-218 -275h218v-140h-400v144l222 276h-221v140h399z" />
    <glyph glyph-name="Zdotaccent" unicode="&#x17b;" horiz-adv-x="504" 
d="M252 624c-48 0 -82 33 -82 83c0 47 34 82 82 82c49 0 83 -35 83 -82c0 -50 -34 -83 -83 -83zM452 560v-145l-218 -275h218v-140h-400v144l222 276h-221v140h399z" />
    <glyph glyph-name="B.ss01" horiz-adv-x="523" 
d="M62 0v560c67 4 142 5 190 5c146 0 196 -80 196 -160c0 -46 -21 -82 -43 -99c53 -32 76 -87 76 -141c0 -123 -107 -165 -165 -165h-254zM211 343h46c24 0 40 17 40 43c0 15 -11 43 -45 43c-15 0 -32 0 -41 -1v-85zM211 141h68c23 0 44 15 44 43c0 30 -26 41 -42 41l-70 -1
v-83z" />
    <glyph glyph-name="D.ss01" horiz-adv-x="534" 
d="M62 0v560c67 4 142 4 191 5c124 3 239 -98 239 -293c0 -197 -131 -272 -236 -272h-194zM211 148h42c64 0 88 64 88 124c0 73 -17 146 -94 146c-13 0 -23 0 -36 -2v-268z" />
    <glyph glyph-name="P.ss01" horiz-adv-x="481" 
d="M246 566c118 0 213 -77 213 -210c0 -113 -72 -202 -187 -205h-61v-151h-149v560c67 4 142 7 184 6zM211 285h39c28 0 60 23 60 62c0 37 -17 71 -63 71c-13 0 -23 0 -36 -1v-132z" />
    <glyph glyph-name="R.ss01" horiz-adv-x="511" 
d="M489 0h-171l-87 151h-20v-151h-149v560c67 4 142 7 184 6c113 0 213 -77 213 -210c0 -71 -28 -133 -78 -169zM211 417v-132h39c28 0 60 23 60 62c0 37 -16 71 -62 71c-14 0 -24 0 -37 -1z" />
    <glyph glyph-name="a" unicode="a" horiz-adv-x="504" 
d="M435 224c0 -55 7 -80 42 -80v-135c-87 -24 -156 -5 -182 75c-19 -40 -49 -77 -94 -84c-100 -16 -174 82 -174 210c0 131 80 249 178 231c40 -7 65 -38 82 -74v24l4 55l145 -8zM239 126c17 0 32 9 46 23v15l1 122c-16 17 -33 27 -51 27c-32 0 -54 -42 -54 -105
c0 -46 19 -82 58 -82z" />
    <glyph glyph-name="aacute" unicode="&#xe1;" horiz-adv-x="504" 
d="M456 596l-208 -90l-45 92l186 122zM435 224c0 -55 7 -80 42 -80v-135c-87 -24 -156 -5 -182 75c-19 -40 -49 -77 -94 -84c-100 -16 -174 82 -174 210c0 131 80 249 178 231c40 -7 65 -38 82 -74v24l4 55l145 -8zM239 126c17 0 32 9 46 23v15l1 122c-16 17 -33 27 -51 27
c-32 0 -54 -42 -54 -105c0 -46 19 -82 58 -82z" />
    <glyph glyph-name="abreve" unicode="&#x103;" horiz-adv-x="504" 
d="M261 519c-65 0 -122 36 -152 90l78 67c14 -19 40 -44 74 -44c40 0 59 24 74 44l78 -67c-30 -55 -86 -90 -152 -90zM435 224c0 -55 7 -80 42 -80v-135c-87 -24 -156 -5 -182 75c-19 -40 -49 -77 -94 -84c-100 -16 -174 82 -174 210c0 131 80 249 178 231
c40 -7 65 -38 82 -74v24l4 55l145 -8zM239 126c17 0 32 9 46 23v15l1 122c-16 17 -33 27 -51 27c-32 0 -54 -42 -54 -105c0 -46 19 -82 58 -82z" />
    <glyph glyph-name="uni01CE" unicode="&#x1ce;" horiz-adv-x="504" 
d="M407 632l-147 -119l-146 124l75 76l71 -61l75 60zM435 224c0 -55 7 -80 42 -80v-135c-87 -24 -156 -5 -182 75c-19 -40 -49 -77 -94 -84c-100 -16 -174 82 -174 210c0 131 80 249 178 231c40 -7 65 -38 82 -74v24l4 55l145 -8zM239 126c17 0 32 9 46 23v15l1 122
c-16 17 -33 27 -51 27c-32 0 -54 -42 -54 -105c0 -46 19 -82 58 -82z" />
    <glyph glyph-name="acircumflex" unicode="&#xe2;" horiz-adv-x="504" 
d="M260 576l-71 -61l-75 76l146 124l147 -119l-72 -80zM435 224c0 -55 7 -80 42 -80v-135c-87 -24 -156 -5 -182 75c-19 -40 -49 -77 -94 -84c-100 -16 -174 82 -174 210c0 131 80 249 178 231c40 -7 65 -38 82 -74v24l4 55l145 -8zM239 126c17 0 32 9 46 23v15l1 122
c-16 17 -33 27 -51 27c-32 0 -54 -42 -54 -105c0 -46 19 -82 58 -82z" />
    <glyph glyph-name="adieresis" unicode="&#xe4;" horiz-adv-x="504" 
d="M347 534c-39 0 -65 27 -65 67c0 39 26 65 65 65c40 0 67 -26 67 -65c0 -40 -27 -67 -67 -67zM153 533c-39 0 -65 27 -65 67c0 39 26 65 65 65c40 0 67 -26 67 -65c0 -40 -27 -67 -67 -67zM435 224c0 -55 7 -80 42 -80v-135c-87 -24 -156 -5 -182 75
c-19 -40 -49 -77 -94 -84c-100 -16 -174 82 -174 210c0 131 80 249 178 231c40 -7 65 -38 82 -74v24l4 55l145 -8zM239 126c17 0 32 9 46 23v15l1 122c-16 17 -33 27 -51 27c-32 0 -54 -42 -54 -105c0 -46 19 -82 58 -82z" />
    <glyph glyph-name="agrave" unicode="&#xe0;" horiz-adv-x="504" 
d="M312 597l-46 -92l-208 90l68 124zM435 224c0 -55 7 -80 42 -80v-135c-87 -24 -156 -5 -182 75c-19 -40 -49 -77 -94 -84c-100 -16 -174 82 -174 210c0 131 80 249 178 231c40 -7 65 -38 82 -74v24l4 55l145 -8zM239 126c17 0 32 9 46 23v15l1 122c-16 17 -33 27 -51 27
c-32 0 -54 -42 -54 -105c0 -46 19 -82 58 -82z" />
    <glyph glyph-name="amacron" unicode="&#x101;" horiz-adv-x="504" 
d="M395 646l-1 -115h-267v115h268zM435 224c0 -55 7 -80 42 -80v-135c-87 -24 -156 -5 -182 75c-19 -40 -49 -77 -94 -84c-100 -16 -174 82 -174 210c0 131 80 249 178 231c40 -7 65 -38 82 -74v24l4 55l145 -8zM239 126c17 0 32 9 46 23v15l1 122c-16 17 -33 27 -51 27
c-32 0 -54 -42 -54 -105c0 -46 19 -82 58 -82z" />
    <glyph glyph-name="aogonek" unicode="&#x105;" horiz-adv-x="504" 
d="M474 8c-58 -27 -92 -46 -106 -67c-22 -33 18 -71 51 -23l56 -61c-68 -94 -204 -53 -195 54c3 41 32 78 77 99c-28 13 -50 37 -62 74c-19 -40 -49 -77 -94 -84c-100 -16 -174 82 -174 210c0 131 80 249 178 231c40 -7 65 -38 82 -74v24l4 55l145 -8l-1 -214
c0 -55 7 -80 42 -80v-134v-1c-1 0 -2 0 -3 -1zM239 126c17 0 32 9 46 23v15l1 122c-16 17 -33 27 -51 27c-32 0 -54 -42 -54 -105c0 -46 19 -82 58 -82z" />
    <glyph glyph-name="aring" unicode="&#xe5;" horiz-adv-x="504" 
d="M260 497c-66 0 -116 54 -116 117c0 64 50 116 116 116c64 0 117 -52 117 -116c0 -63 -53 -117 -117 -117zM257 646c-17 0 -30 -14 -30 -33c0 -20 13 -33 30 -33c19 0 34 13 34 33c0 19 -15 33 -34 33zM435 224c0 -55 7 -80 42 -80v-135c-87 -24 -156 -5 -182 75
c-19 -40 -49 -77 -94 -84c-100 -16 -174 82 -174 210c0 131 80 249 178 231c40 -7 65 -38 82 -74v24l4 55l145 -8zM239 126c17 0 32 9 46 23v15l1 122c-16 17 -33 27 -51 27c-32 0 -54 -42 -54 -105c0 -46 19 -82 58 -82z" />
    <glyph glyph-name="atilde" unicode="&#xe3;" horiz-adv-x="504" 
d="M227 562c-16 0 -27 -21 -35 -41l-101 53c9 24 44 99 104 99c42 0 73 -27 97 -27c18 0 25 18 36 42l102 -51c-9 -24 -42 -104 -106 -104c-47 0 -74 29 -97 29zM435 224c0 -55 7 -80 42 -80v-135c-87 -24 -156 -5 -182 75c-19 -40 -49 -77 -94 -84
c-100 -16 -174 82 -174 210c0 131 80 249 178 231c40 -7 65 -38 82 -74v24l4 55l145 -8zM239 126c17 0 32 9 46 23v15l1 122c-16 17 -33 27 -51 27c-32 0 -54 -42 -54 -105c0 -46 19 -82 58 -82z" />
    <glyph glyph-name="ae" unicode="&#xe6;" horiz-adv-x="833" 
d="M804 185h-262v-6c1 -41 32 -56 56 -56c26 0 44 12 54 36l136 -40c-30 -70 -96 -124 -188 -124c-77 0 -135 39 -169 95v-90h-140v76c-19 -37 -49 -69 -90 -76c-100 -16 -174 82 -174 210c0 131 80 249 178 231c43 -8 70 -44 86 -83v91l140 -12v-86c34 55 92 94 169 94
c129 0 206 -106 206 -212c0 -36 -1 -39 -2 -48zM598 317c-25 0 -55 -18 -55 -54h110c-1 36 -30 54 -55 54zM239 126c20 0 37 12 52 30v125c-17 20 -36 32 -56 32c-32 0 -54 -42 -54 -105c0 -46 19 -82 58 -82z" />
    <glyph glyph-name="b" unicode="b" horiz-adv-x="484" 
d="M282 445c102 26 175 -87 175 -228c0 -144 -89 -249 -196 -213c-26 9 -49 30 -67 57l-7 -61h-140v595l150 8l-1 -242c19 38 47 74 86 84zM239 120c38 0 62 35 62 97c0 58 -18 103 -57 103c-15 0 -32 -14 -48 -37l-1 -137c15 -15 30 -26 44 -26z" />
    <glyph glyph-name="c" unicode="c" horiz-adv-x="434" 
d="M229 -5c-131 0 -202 106 -202 222v6c0 116 71 222 202 222c70 0 141 -36 178 -110l-122 -75c-9 30 -30 47 -56 47c-44 0 -59 -40 -59 -84v-6c0 -44 15 -84 59 -84c25 0 47 15 55 45l121 -78c-41 -75 -113 -105 -176 -105z" />
    <glyph glyph-name="cacute" unicode="&#x107;" horiz-adv-x="434" 
d="M210 496l-45 92l186 122l67 -124zM229 -5c-131 0 -202 106 -202 222v6c0 116 71 222 202 222c70 0 141 -36 178 -110l-122 -75c-9 30 -30 47 -56 47c-44 0 -59 -40 -59 -84v-6c0 -44 15 -84 59 -84c25 0 47 15 55 45l121 -78c-41 -75 -113 -105 -176 -105z" />
    <glyph glyph-name="ccaron" unicode="&#x10d;" horiz-adv-x="434" 
d="M369 622l-147 -119l-146 124l75 76l71 -61l75 60zM229 133c25 0 47 15 55 45l121 -78c-41 -75 -113 -105 -176 -105c-131 0 -202 106 -202 222v6c0 116 71 222 202 222c70 0 141 -36 178 -110l-122 -75c-9 30 -30 47 -56 47c-44 0 -59 -40 -59 -84v-6
c0 -44 15 -84 59 -84z" />
    <glyph glyph-name="ccedilla" unicode="&#xe7;" horiz-adv-x="434" 
d="M229 133c25 0 47 15 55 45l121 -78c-33 -60 -86 -91 -138 -101l-8 -34c55 11 101 -26 101 -78c0 -63 -49 -100 -114 -100c-44 0 -76 18 -94 33l43 66c8 -6 21 -14 44 -14c11 0 26 5 26 20c0 25 -27 26 -44 25l-42 -3v87c-99 23 -152 116 -152 216v6c0 116 71 222 202 222
c70 0 141 -36 178 -110l-122 -75c-9 30 -30 47 -56 47c-44 0 -59 -40 -59 -84v-6c0 -44 15 -84 59 -84z" />
    <glyph glyph-name="cdotaccent" unicode="&#x10b;" horiz-adv-x="434" 
d="M223 484c-48 0 -82 33 -82 83c0 47 34 82 82 82c49 0 83 -35 83 -82c0 -50 -34 -83 -83 -83zM229 -5c-131 0 -202 106 -202 222v6c0 116 71 222 202 222c70 0 141 -36 178 -110l-122 -75c-9 30 -30 47 -56 47c-44 0 -59 -40 -59 -84v-6c0 -44 15 -84 59 -84
c25 0 47 15 55 45l121 -78c-41 -75 -113 -105 -176 -105z" />
    <glyph glyph-name="d" unicode="d" horiz-adv-x="484" 
d="M287 591l150 -7v-584h-140l-10 69c-19 -34 -47 -63 -86 -69c-100 -16 -174 82 -174 210c0 131 80 249 178 231c40 -7 66 -39 82 -74v224zM239 126c18 0 34 10 48 25v134c-16 18 -33 28 -52 28c-32 0 -54 -42 -54 -105c0 -46 19 -82 58 -82z" />
    <glyph glyph-name="eth" unicode="&#xf0;" horiz-adv-x="475" 
d="M448 329c0 -126 -39 -307 -195 -331c-9 -2 -19 -3 -29 -3c-125 0 -197 107 -197 225c0 112 79 217 187 215c40 -1 74 -17 101 -42c-8 49 -23 91 -45 126l-45 -41l-57 62l47 43c-21 18 -45 34 -71 47l60 103c37 -16 72 -37 103 -65l54 50l57 -64l-54 -49
c52 -72 84 -166 84 -276zM175 220c0 -66 15 -107 59 -107c11 0 21 3 29 8c22 16 31 51 31 99c0 76 -16 117 -60 117s-59 -41 -59 -117z" />
    <glyph glyph-name="dcaron" unicode="&#x10f;" horiz-adv-x="484" 
d="M484 605l137 -7l-25 -206l-105 2zM287 367v224l150 -7v-584h-140l-10 69c-19 -34 -47 -63 -86 -69c-100 -16 -174 82 -174 210c0 131 80 249 178 231c40 -7 66 -39 82 -74zM239 126c18 0 34 10 48 25v134c-16 18 -33 28 -52 28c-32 0 -54 -42 -54 -105
c0 -46 19 -82 58 -82z" />
    <glyph glyph-name="dcroat" unicode="&#x111;" horiz-adv-x="484" 
d="M486 525l-1 -65h-48v-460h-140l-10 69c-19 -34 -47 -63 -86 -69c-100 -16 -174 82 -174 210c0 131 80 249 178 231c40 -7 66 -39 82 -74v93h-66v65h66v66l150 -7v-59h49zM239 126c18 0 34 10 48 25v134c-16 18 -33 28 -52 28c-32 0 -54 -42 -54 -105c0 -46 19 -82 58 -82
z" />
    <glyph glyph-name="e" unicode="e" horiz-adv-x="465" 
d="M232 -5c-129 0 -205 110 -205 225s76 225 205 225s206 -106 206 -212c0 -36 -1 -39 -2 -48h-262v-6c1 -41 32 -56 56 -56c26 0 44 12 54 36l136 -40c-30 -70 -96 -124 -188 -124zM175 263h110c-1 36 -30 54 -55 54s-55 -18 -55 -54z" />
    <glyph glyph-name="eacute" unicode="&#xe9;" horiz-adv-x="465" 
d="M220 496l-45 92l186 122l67 -124zM232 -5c-129 0 -205 110 -205 225s76 225 205 225s206 -106 206 -212c0 -36 -1 -39 -2 -48h-262v-6c1 -41 32 -56 56 -56c26 0 44 12 54 36l136 -40c-30 -70 -96 -124 -188 -124zM175 263h110c-1 36 -30 54 -55 54s-55 -18 -55 -54z" />
    <glyph glyph-name="ecaron" unicode="&#x11b;" horiz-adv-x="465" 
d="M379 622l-147 -119l-146 124l75 76l71 -61l75 60zM436 185h-262v-6c1 -41 32 -56 56 -56c26 0 44 12 54 36l136 -40c-30 -70 -96 -124 -188 -124c-129 0 -205 110 -205 225s76 225 205 225s206 -106 206 -212c0 -36 -1 -39 -2 -48zM230 317c-25 0 -55 -18 -55 -54h110
c-1 36 -30 54 -55 54z" />
    <glyph glyph-name="ecircumflex" unicode="&#xea;" horiz-adv-x="465" 
d="M232 566l-71 -61l-75 76l146 124l147 -119l-72 -80zM436 185h-262v-6c1 -41 32 -56 56 -56c26 0 44 12 54 36l136 -40c-30 -70 -96 -124 -188 -124c-129 0 -205 110 -205 225s76 225 205 225s206 -106 206 -212c0 -36 -1 -39 -2 -48zM230 317c-25 0 -55 -18 -55 -54h110
c-1 36 -30 54 -55 54z" />
    <glyph glyph-name="edieresis" unicode="&#xeb;" horiz-adv-x="465" 
d="M319 524c-39 0 -65 27 -65 67c0 39 26 65 65 65c40 0 67 -26 67 -65c0 -40 -27 -67 -67 -67zM125 523c-39 0 -65 27 -65 67c0 39 26 65 65 65c40 0 67 -26 67 -65c0 -40 -27 -67 -67 -67zM232 -5c-129 0 -205 110 -205 225s76 225 205 225s206 -106 206 -212
c0 -36 -1 -39 -2 -48h-262v-6c1 -41 32 -56 56 -56c26 0 44 12 54 36l136 -40c-30 -70 -96 -124 -188 -124zM175 263h110c-1 36 -30 54 -55 54s-55 -18 -55 -54z" />
    <glyph glyph-name="edotaccent" unicode="&#x117;" horiz-adv-x="465" 
d="M233 484c-48 0 -82 33 -82 83c0 47 34 82 82 82c49 0 83 -35 83 -82c0 -50 -34 -83 -83 -83zM232 -5c-129 0 -205 110 -205 225s76 225 205 225s206 -106 206 -212c0 -36 -1 -39 -2 -48h-262v-6c1 -41 32 -56 56 -56c26 0 44 12 54 36l136 -40
c-30 -70 -96 -124 -188 -124zM175 263h110c-1 36 -30 54 -55 54s-55 -18 -55 -54z" />
    <glyph glyph-name="egrave" unicode="&#xe8;" horiz-adv-x="465" 
d="M238 495l-208 90l68 124l186 -122zM232 -5c-129 0 -205 110 -205 225s76 225 205 225s206 -106 206 -212c0 -36 -1 -39 -2 -48h-262v-6c1 -41 32 -56 56 -56c26 0 44 12 54 36l136 -40c-30 -70 -96 -124 -188 -124zM175 263h110c-1 36 -30 54 -55 54s-55 -18 -55 -54z
" />
    <glyph glyph-name="emacron" unicode="&#x113;" horiz-adv-x="465" 
d="M99 521v115h268l-1 -115h-267zM232 -5c-129 0 -205 110 -205 225s76 225 205 225s206 -106 206 -212c0 -36 -1 -39 -2 -48h-262v-6c1 -41 32 -56 56 -56c26 0 44 12 54 36l136 -40c-30 -70 -96 -124 -188 -124zM175 263h110c-1 36 -30 54 -55 54s-55 -18 -55 -54z" />
    <glyph glyph-name="eogonek" unicode="&#x119;" horiz-adv-x="465" 
d="M436 185h-262v-6c1 -41 32 -56 56 -56c26 0 44 12 54 36l136 -40c-18 -42 -49 -79 -91 -101h1c-61 -28 -96 -48 -110 -69c-22 -33 18 -71 51 -23l56 -61c-68 -94 -204 -53 -195 54c3 32 20 61 49 82c-98 25 -154 120 -154 219c0 115 76 225 205 225s206 -106 206 -212
c0 -36 -1 -39 -2 -48zM230 317c-25 0 -55 -18 -55 -54h110c-1 36 -30 54 -55 54z" />
    <glyph glyph-name="f" unicode="f" horiz-adv-x="306" 
d="M257 474c-14 -3 -31 -12 -34 -44h66v-125h-66v-305h-150v305h-46v125h46v2c0 118 73 168 169 168c29 0 72 -8 87 -16l-32 -113c-12 2 -24 5 -40 3z" />
    <glyph glyph-name="g" unicode="g" horiz-adv-x="490" 
d="M473 434l-4 -130l-66 4c16 -29 27 -62 27 -98c0 -40 -13 -80 -36 -112c23 -30 39 -68 38 -108c-1 -109 -84 -200 -205 -200c-112 0 -177 83 -196 154l120 48c5 -19 29 -66 76 -66c35 0 57 26 57 64c0 13 -2 24 -6 33c-15 -3 -30 -5 -46 -5c-125 0 -204 103 -204 214
c0 101 79 213 204 213h2zM170 232c0 -42 16 -86 62 -86s63 44 63 86c0 41 -17 85 -63 85s-62 -44 -62 -85z" />
    <glyph glyph-name="gbreve" unicode="&#x11f;" horiz-adv-x="490" 
d="M237 509c-65 0 -122 36 -152 90l78 67c14 -19 40 -44 74 -44c40 0 59 24 74 44l78 -67c-30 -55 -86 -90 -152 -90zM473 434l-4 -130l-66 4c16 -29 27 -62 27 -98c0 -40 -13 -80 -36 -112c23 -30 39 -68 38 -108c-1 -109 -84 -200 -205 -200c-112 0 -177 83 -196 154
l120 48c5 -19 29 -66 76 -66c35 0 57 26 57 64c0 13 -2 24 -6 33c-15 -3 -30 -5 -46 -5c-125 0 -204 103 -204 214c0 101 79 213 204 213h2zM170 232c0 -42 16 -86 62 -86s63 44 63 86c0 41 -17 85 -63 85s-62 -44 -62 -85z" />
    <glyph glyph-name="gcommaaccent" unicode="&#x123;" horiz-adv-x="490" 
d="M312 680l-37 -172l-113 9l10 178zM473 434l-4 -130l-66 4c16 -29 27 -62 27 -98c0 -40 -13 -80 -36 -112c23 -30 39 -68 38 -108c-1 -109 -84 -200 -205 -200c-112 0 -177 83 -196 154l120 48c5 -19 29 -66 76 -66c35 0 57 26 57 64c0 13 -2 24 -6 33
c-15 -3 -30 -5 -46 -5c-125 0 -204 103 -204 214c0 101 79 213 204 213h2zM170 232c0 -42 16 -86 62 -86s63 44 63 86c0 41 -17 85 -63 85s-62 -44 -62 -85z" />
    <glyph glyph-name="gdotaccent" unicode="&#x121;" horiz-adv-x="490" 
d="M237 484c-48 0 -82 33 -82 83c0 47 34 82 82 82c49 0 83 -35 83 -82c0 -50 -34 -83 -83 -83zM473 434l-4 -130l-66 4c16 -29 27 -62 27 -98c0 -40 -13 -80 -36 -112c23 -30 39 -68 38 -108c-1 -109 -84 -200 -205 -200c-112 0 -177 83 -196 154l120 48
c5 -19 29 -66 76 -66c35 0 57 26 57 64c0 13 -2 24 -6 33c-15 -3 -30 -5 -46 -5c-125 0 -204 103 -204 214c0 101 79 213 204 213h2zM170 232c0 -42 16 -86 62 -86s63 44 63 86c0 41 -17 85 -63 85s-62 -44 -62 -85z" />
    <glyph glyph-name="h" unicode="h" horiz-adv-x="479" 
d="M293 445c85 12 144 -64 144 -155v-290h-150v248c0 36 -13 64 -49 62c-16 -1 -30 -9 -41 -20v-290h-150v584l150 8v-216c25 38 60 64 96 69z" />
    <glyph glyph-name="hbar" unicode="&#x127;" horiz-adv-x="474" 
d="M293 445c85 12 144 -64 144 -155v-290h-150v248c0 36 -13 64 -49 62c-16 -1 -30 -9 -41 -20v-290h-150v460h-42v65h42v59l150 8v-67h73l-1 -65h-72v-84c25 38 60 64 96 69z" />
    <glyph glyph-name="i" unicode="i" horiz-adv-x="245" 
d="M121 460c-48 0 -82 33 -82 83c0 47 34 82 82 82c49 0 83 -35 83 -82c0 -50 -34 -83 -83 -83zM47 0l1 422l150 8l-1 -430h-150z" />
    <glyph glyph-name="dotlessi" unicode="&#x131;" horiz-adv-x="245" 
d="M47 0l1 422l150 8l-1 -430h-150z" />
    <glyph glyph-name="iacute" unicode="&#xed;" horiz-adv-x="245" 
d="M108 472l-45 92l186 122l67 -124zM47 0l1 422l150 8l-1 -430h-150z" />
    <glyph glyph-name="uni01D0" unicode="&#x1d0;" horiz-adv-x="245" 
d="M267 598l-147 -119l-146 124l75 76l71 -61l75 60zM47 0l1 422l150 8l-1 -430h-150z" />
    <glyph glyph-name="icircumflex" unicode="&#xee;" horiz-adv-x="245" 
d="M120 542l-71 -61l-75 76l146 124l147 -119l-72 -80zM47 0l1 422l150 8l-1 -430h-150z" />
    <glyph glyph-name="idieresis" unicode="&#xef;" horiz-adv-x="245" 
d="M207 500c-39 0 -65 27 -65 67c0 39 26 65 65 65c40 0 67 -26 67 -65c0 -40 -27 -67 -67 -67zM13 499c-39 0 -65 27 -65 67c0 39 26 65 65 65c40 0 67 -26 67 -65c0 -40 -27 -67 -67 -67zM47 0l1 422l150 8l-1 -430h-150z" />
    <glyph glyph-name="i.loclTRK" horiz-adv-x="245" 
d="M121 460c-48 0 -82 33 -82 83c0 47 34 82 82 82c49 0 83 -35 83 -82c0 -50 -34 -83 -83 -83zM47 0l1 422l150 8l-1 -430h-150z" />
    <glyph glyph-name="igrave" unicode="&#xec;" horiz-adv-x="245" 
d="M126 471l-208 90l68 124l186 -122zM47 0l1 422l150 8l-1 -430h-150z" />
    <glyph glyph-name="ij" unicode="&#x133;" horiz-adv-x="478" 
d="M360 470c-48 0 -82 33 -82 83c0 47 34 82 82 82c49 0 83 -35 83 -82c0 -50 -34 -83 -83 -83zM121 460c-48 0 -82 33 -82 83c0 47 34 82 82 82c49 0 83 -35 83 -82c0 -50 -34 -83 -83 -83zM47 0l1 422l150 8l-1 -430h-150zM277 -210c-45 0 -90 17 -105 36l34 123
c10 -5 25 -9 39 -8c25 2 41 23 41 66v415l150 8v-422c0 -148 -53 -218 -159 -218z" />
    <glyph glyph-name="imacron" unicode="&#x12b;" horiz-adv-x="245" 
d="M-13 497v115h268l-1 -115h-267zM47 0l1 422l150 8l-1 -430h-150z" />
    <glyph glyph-name="iogonek" unicode="&#x12f;" horiz-adv-x="245" 
d="M121 460c-48 0 -82 33 -82 83c0 47 34 82 82 82c49 0 83 -35 83 -82c0 -50 -34 -83 -83 -83zM47 0l1 422l150 8l-1 -430h-2c-60 -27 -94 -47 -108 -68c-22 -33 18 -71 51 -23l56 -61c-68 -94 -204 -53 -195 54c3 40 31 76 75 98h-27z" />
    <glyph glyph-name="j" unicode="j" horiz-adv-x="233" 
d="M115 470c-48 0 -82 33 -82 83c0 47 34 82 82 82c49 0 83 -35 83 -82c0 -50 -34 -83 -83 -83zM32 -210c-45 0 -90 17 -105 36l34 123c10 -5 25 -9 39 -8c25 2 41 23 41 66v415l150 8v-422c0 -148 -53 -218 -159 -218z" />
    <glyph glyph-name="uni0237" unicode="&#x237;" horiz-adv-x="233" 
d="M32 -210c-45 0 -90 17 -105 36l34 123c10 -5 25 -9 39 -8c25 2 41 23 41 66v415l150 8v-422c0 -148 -53 -218 -159 -218z" />
    <glyph glyph-name="k" unicode="k" horiz-adv-x="463" 
d="M321 0l-89 154l-35 -45v-109h-150v576l150 9v-270l101 125h160l-138 -174l151 -266h-150z" />
    <glyph glyph-name="kcommaaccent" unicode="&#x137;" horiz-adv-x="463" 
d="M320 266l151 -266h-150l-89 154l-35 -45v-109h-150v576l150 9v-270l101 125h160zM113 -196l37 172l113 -9l-10 -178z" />
    <glyph glyph-name="l" unicode="l" horiz-adv-x="283" 
d="M219 -1c-111 0 -172 39 -172 185l1 400l150 8l-1 -358c0 -55 4 -85 37 -89c9 -1 19 -1 27 -1v-143c-17 -1 -29 -2 -42 -2z" />
    <glyph glyph-name="lacute" unicode="&#x13a;" horiz-adv-x="283" 
d="M114 646l-45 92l186 122l67 -124zM219 -1c-111 0 -172 39 -172 185l1 400l150 8l-1 -358c0 -55 4 -85 37 -89c9 -1 19 -1 27 -1v-143c-17 -1 -29 -2 -42 -2z" />
    <glyph glyph-name="lcaron" unicode="&#x13e;" horiz-adv-x="388" 
d="M209 -1c-111 0 -172 39 -172 185l1 400l150 8l-1 -358c0 -55 4 -85 37 -89c9 -1 19 -1 27 -1v-143c-17 -1 -29 -2 -42 -2zM370 377l-105 2l-7 211l137 -7z" />
    <glyph glyph-name="lcommaaccent" unicode="&#x13c;" horiz-adv-x="283" 
d="M219 -1c-111 0 -172 39 -172 185l1 400l150 8l-1 -358c0 -55 4 -85 37 -89c9 -1 19 -1 27 -1v-143c-17 -1 -29 -2 -42 -2zM197 -221l-140 15l37 172l113 -9z" />
    <glyph glyph-name="ldot" unicode="&#x140;" horiz-adv-x="397" 
d="M209 -1c-111 0 -172 39 -172 185l1 400l150 8l-1 -358c0 -55 4 -85 37 -89c9 -1 19 -1 27 -1v-143c-17 -1 -29 -2 -42 -2zM313 264c-39 0 -65 27 -65 67c0 39 26 65 65 65c40 0 67 -26 67 -65c0 -40 -27 -67 -67 -67z" />
    <glyph glyph-name="lslash" unicode="&#x142;" horiz-adv-x="313" 
d="M213 234c0 -55 4 -85 37 -89c9 -1 19 -1 27 -1v-143c-17 -1 -29 -2 -42 -2c-111 0 -172 39 -172 185v23l-57 -53l-59 60l116 109l1 261l150 8v-127l52 49l60 -60l-113 -106v-114z" />
    <glyph glyph-name="m" unicode="m" horiz-adv-x="700" 
d="M514 445c85 12 144 -64 144 -155v-290h-150v248c0 36 -13 64 -49 62c-12 -1 -23 -5 -32 -12v-298h-150v248c0 36 -11 65 -44 62c-16 -1 -29 -9 -38 -21l2 -289h-150v438l140 8l7 -73v-2c24 42 60 70 99 74c57 7 102 -25 122 -74c25 41 62 69 99 74z" />
    <glyph glyph-name="n" unicode="n" horiz-adv-x="479" 
d="M293 445c85 12 144 -64 144 -155v-290h-150v248c0 36 -13 64 -49 62c-16 -1 -30 -9 -41 -20v-290h-150v439l145 8l5 -72c25 39 60 65 96 70z" />
    <glyph glyph-name="nacute" unicode="&#x144;" horiz-adv-x="479" 
d="M441 586l-208 -90l-45 92l186 122zM293 445c85 12 144 -64 144 -155v-290h-150v248c0 36 -13 64 -49 62c-16 -1 -30 -9 -41 -20v-290h-150v439l145 8l5 -72c25 39 60 65 96 70z" />
    <glyph glyph-name="ncaron" unicode="&#x148;" horiz-adv-x="479" 
d="M392 622l-147 -119l-146 124l75 76l71 -61l75 60zM293 445c85 12 144 -64 144 -155v-290h-150v248c0 36 -13 64 -49 62c-16 -1 -30 -9 -41 -20v-290h-150v439l145 8l5 -72c25 39 60 65 96 70z" />
    <glyph glyph-name="ncommaaccent" unicode="&#x146;" horiz-adv-x="479" 
d="M293 445c85 12 144 -64 144 -155v-290h-150v248c0 36 -13 64 -49 62c-16 -1 -30 -9 -41 -20v-290h-150v439l145 8l5 -72c25 39 60 65 96 70zM142 -206l37 172l113 -9l-10 -178z" />
    <glyph glyph-name="eng" unicode="&#x14b;" horiz-adv-x="484" 
d="M293 445c85 12 144 -64 144 -155v-326c0 -118 -73 -178 -169 -178c-55 0 -80 17 -95 26l34 130c11 -3 15 -6 39 -5c25 1 41 23 41 66v245c0 36 -13 64 -49 62c-16 -1 -30 -9 -41 -20v-290h-150v439l145 8l5 -72c25 39 60 65 96 70z" />
    <glyph glyph-name="ntilde" unicode="&#xf1;" horiz-adv-x="479" 
d="M212 552c-16 0 -27 -21 -35 -41l-101 53c9 24 44 99 104 99c42 0 73 -27 97 -27c18 0 25 18 36 42l102 -51c-9 -24 -42 -104 -106 -104c-47 0 -74 29 -97 29zM293 445c85 12 144 -64 144 -155v-290h-150v248c0 36 -13 64 -49 62c-16 -1 -30 -9 -41 -20v-290h-150v439
l145 8l5 -72c25 39 60 65 96 70z" />
    <glyph glyph-name="o" unicode="o" horiz-adv-x="469" 
d="M234 -5c-131 0 -207 106 -207 222v6c0 116 76 222 207 222s208 -106 208 -222v-6c0 -116 -77 -222 -208 -222zM234 123c44 0 60 40 60 94v6c0 54 -16 94 -60 94s-59 -40 -59 -94v-6c0 -54 15 -94 59 -94z" />
    <glyph glyph-name="oacute" unicode="&#xf3;" horiz-adv-x="469" 
d="M222 496l-45 92l186 122l67 -124zM234 -5c-131 0 -207 106 -207 222v6c0 116 76 222 207 222s208 -106 208 -222v-6c0 -116 -77 -222 -208 -222zM234 123c44 0 60 40 60 94v6c0 54 -16 94 -60 94s-59 -40 -59 -94v-6c0 -54 15 -94 59 -94z" />
    <glyph glyph-name="uni01D2" unicode="&#x1d2;" horiz-adv-x="469" 
d="M381 622l-147 -119l-146 124l75 76l71 -61l75 60zM234 445c131 0 208 -106 208 -222v-6c0 -116 -77 -222 -208 -222s-207 106 -207 222v6c0 116 76 222 207 222zM294 217v6c0 54 -16 94 -60 94s-59 -40 -59 -94v-6c0 -54 15 -94 59 -94s60 40 60 94z" />
    <glyph glyph-name="ocircumflex" unicode="&#xf4;" horiz-adv-x="469" 
d="M234 566l-71 -61l-75 76l146 124l147 -119l-72 -80zM234 445c131 0 208 -106 208 -222v-6c0 -116 -77 -222 -208 -222s-207 106 -207 222v6c0 116 76 222 207 222zM294 217v6c0 54 -16 94 -60 94s-59 -40 -59 -94v-6c0 -54 15 -94 59 -94s60 40 60 94z" />
    <glyph glyph-name="odieresis" unicode="&#xf6;" horiz-adv-x="469" 
d="M321 524c-39 0 -65 27 -65 67c0 39 26 65 65 65c40 0 67 -26 67 -65c0 -40 -27 -67 -67 -67zM127 523c-39 0 -65 27 -65 67c0 39 26 65 65 65c40 0 67 -26 67 -65c0 -40 -27 -67 -67 -67zM234 -5c-131 0 -207 106 -207 222v6c0 116 76 222 207 222s208 -106 208 -222v-6
c0 -116 -77 -222 -208 -222zM234 123c44 0 60 40 60 94v6c0 54 -16 94 -60 94s-59 -40 -59 -94v-6c0 -54 15 -94 59 -94z" />
    <glyph glyph-name="ograve" unicode="&#xf2;" horiz-adv-x="469" 
d="M240 495l-208 90l68 124l186 -122zM234 -5c-131 0 -207 106 -207 222v6c0 116 76 222 207 222s208 -106 208 -222v-6c0 -116 -77 -222 -208 -222zM234 123c44 0 60 40 60 94v6c0 54 -16 94 -60 94s-59 -40 -59 -94v-6c0 -54 15 -94 59 -94z" />
    <glyph glyph-name="ohungarumlaut" unicode="&#x151;" horiz-adv-x="469" 
d="M197 494l-115 -2l-7 220l137 -6zM365 490l-115 2l7 216l137 -7zM234 -5c-131 0 -207 106 -207 222v6c0 116 76 222 207 222s208 -106 208 -222v-6c0 -116 -77 -222 -208 -222zM234 123c44 0 60 40 60 94v6c0 54 -16 94 -60 94s-59 -40 -59 -94v-6c0 -54 15 -94 59 -94z
" />
    <glyph glyph-name="omacron" unicode="&#x14d;" horiz-adv-x="469" 
d="M101 521v115h268l-1 -115h-267zM234 -5c-131 0 -207 106 -207 222v6c0 116 76 222 207 222s208 -106 208 -222v-6c0 -116 -77 -222 -208 -222zM234 123c44 0 60 40 60 94v6c0 54 -16 94 -60 94s-59 -40 -59 -94v-6c0 -54 15 -94 59 -94z" />
    <glyph glyph-name="oslash" unicode="&#xf8;" horiz-adv-x="469" 
d="M464 402l-54 -54c21 -34 32 -75 32 -115v-26c0 -106 -77 -212 -208 -212c-53 0 -98 18 -131 46l-55 -55l-45 46l57 57c-21 35 -33 77 -33 118v26c0 106 76 212 207 212c54 0 100 -18 134 -47l50 50zM175 253v-49l107 108c-9 16 -24 25 -48 25c-44 0 -59 -30 -59 -84z
M294 187v45l-106 -106c9 -15 24 -23 46 -23c44 0 60 30 60 84z" />
    <glyph glyph-name="otilde" unicode="&#xf5;" horiz-adv-x="469" 
d="M166 511l-101 53c9 24 44 99 104 99c42 0 73 -27 97 -27c18 0 25 18 36 42l102 -51c-9 -24 -42 -104 -106 -104c-47 0 -74 29 -97 29c-16 0 -27 -21 -35 -41zM234 -5c-131 0 -207 106 -207 222v6c0 116 76 222 207 222s208 -106 208 -222v-6c0 -116 -77 -222 -208 -222z
M234 123c44 0 60 40 60 94v6c0 54 -16 94 -60 94s-59 -40 -59 -94v-6c0 -54 15 -94 59 -94z" />
    <glyph glyph-name="oe" unicode="&#x153;" horiz-adv-x="764" 
d="M735 185h-262v-6c1 -41 32 -56 56 -56c26 0 44 12 54 36l136 -40c-30 -70 -96 -124 -188 -124c-67 0 -119 30 -155 74c-32 -45 -81 -74 -142 -74c-131 0 -207 106 -207 222v6c0 116 76 222 207 222c61 0 110 -29 142 -74c36 44 88 74 155 74c129 0 206 -106 206 -212
c0 -36 -1 -39 -2 -48zM529 317c-25 0 -55 -18 -55 -54h110c-1 36 -30 54 -55 54zM294 217v6c0 44 -16 84 -60 84s-59 -40 -59 -84v-6c0 -44 15 -84 59 -84s60 40 60 84z" />
    <glyph glyph-name="p" unicode="p" horiz-adv-x="484" 
d="M282 445c102 26 175 -87 175 -228c0 -144 -89 -249 -196 -213c-24 8 -46 28 -64 53v-262l-150 7v642l145 8l5 -90c18 37 46 73 85 83zM239 120c38 0 62 35 62 97c0 58 -18 103 -57 103c-15 0 -31 -14 -47 -35v-141c14 -14 28 -24 42 -24z" />
    <glyph glyph-name="thorn" unicode="&#xfe;" horiz-adv-x="488" 
d="M286 445c102 26 175 -87 175 -228c0 -144 -89 -249 -196 -213c-26 9 -50 31 -68 59v-268l-150 8v787l150 8v-244c18 40 47 80 89 91zM243 120c38 0 62 35 62 97c0 58 -18 103 -57 103c-16 0 -34 -16 -51 -41v-131c15 -16 31 -28 46 -28z" />
    <glyph glyph-name="q" unicode="q" horiz-adv-x="484" 
d="M292 454l145 -8v-651l-150 8v266c-19 -34 -47 -63 -86 -69c-100 -16 -174 82 -174 210c0 131 80 249 178 231c40 -7 66 -39 82 -74zM239 126c18 0 34 10 48 25v134c-16 18 -33 28 -52 28c-32 0 -54 -42 -54 -105c0 -46 19 -82 58 -82z" />
    <glyph glyph-name="r" unicode="r" horiz-adv-x="329" 
d="M197 378c21 44 56 74 115 68l-2 -162c-86 10 -112 -34 -113 -140v-144h-150v439l140 8z" />
    <glyph glyph-name="racute" unicode="&#x155;" horiz-adv-x="329" 
d="M360 596l-208 -90l-45 92l186 122zM197 378c21 44 56 74 115 68l-2 -162c-86 10 -112 -34 -113 -140v-144h-150v439l140 8z" />
    <glyph glyph-name="rcaron" unicode="&#x159;" horiz-adv-x="329" 
d="M311 632l-147 -119l-146 124l75 76l71 -61l75 60zM197 378c21 44 56 74 115 68l-2 -162c-86 10 -112 -34 -113 -140v-144h-150v439l140 8z" />
    <glyph glyph-name="rcommaaccent" unicode="&#x157;" horiz-adv-x="329" 
d="M197 378c21 44 56 74 115 68l-2 -162c-86 10 -112 -34 -113 -140v-144h-150v439l140 8zM26 -206l37 172l113 -9l-10 -178z" />
    <glyph glyph-name="s" unicode="s" horiz-adv-x="411" 
d="M207 -5c-104 0 -174 74 -182 117l135 43c10 -16 27 -34 49 -34c28 0 34 21 25 31c-27 30 -199 22 -199 149c0 89 77 144 171 144c82 0 144 -48 180 -118l-130 -41c-8 15 -23 37 -45 37c-26 0 -30 -20 -25 -28c18 -31 195 -9 195 -156c0 -86 -86 -144 -174 -144z" />
    <glyph glyph-name="sacute" unicode="&#x15b;" horiz-adv-x="411" 
d="M193 496l-45 92l186 122l67 -124zM207 -5c-104 0 -174 74 -182 117l135 43c10 -16 27 -34 49 -34c28 0 34 21 25 31c-27 30 -199 22 -199 149c0 89 77 144 171 144c82 0 144 -48 180 -118l-130 -41c-8 15 -23 37 -45 37c-26 0 -30 -20 -25 -28c18 -31 195 -9 195 -156
c0 -86 -86 -144 -174 -144z" />
    <glyph glyph-name="scaron" unicode="&#x161;" horiz-adv-x="411" 
d="M352 622l-147 -119l-146 124l75 76l71 -61l75 60zM186 295c18 -31 195 -9 195 -156c0 -86 -86 -144 -174 -144c-104 0 -174 74 -182 117l135 43c10 -16 27 -34 49 -34c28 0 34 21 25 31c-27 30 -199 22 -199 149c0 89 77 144 171 144c82 0 144 -48 180 -118l-130 -41
c-8 15 -23 37 -45 37c-26 0 -30 -20 -25 -28z" />
    <glyph glyph-name="scedilla" unicode="&#x15f;" horiz-adv-x="411" 
d="M186 295c18 -31 195 -9 195 -156c0 -75 -65 -128 -140 -141l-7 -30c55 11 101 -26 101 -78c0 -63 -49 -100 -114 -100c-44 0 -76 18 -94 33l43 66c8 -6 21 -14 44 -14c11 0 26 5 26 20c0 25 -27 26 -44 25l-42 -3v85c-74 19 -122 75 -129 110l135 43
c10 -16 27 -34 49 -34c28 0 34 21 25 31c-27 30 -199 22 -199 149c0 89 77 144 171 144c82 0 144 -48 180 -118l-130 -41c-8 15 -23 37 -45 37c-26 0 -30 -20 -25 -28z" />
    <glyph glyph-name="scommaaccent" unicode="&#x219;" horiz-adv-x="411" 
d="M207 -5c-104 0 -174 74 -182 117l135 43c10 -16 27 -34 49 -34c28 0 34 21 25 31c-27 30 -199 22 -199 149c0 89 77 144 171 144c82 0 144 -48 180 -118l-130 -41c-8 15 -23 37 -45 37c-26 0 -30 -20 -25 -28c18 -31 195 -9 195 -156c0 -86 -86 -144 -174 -144zM244 -215
l-140 15l37 172l113 -9z" />
    <glyph glyph-name="germandbls" unicode="&#xdf;" horiz-adv-x="519" 
d="M62 0v376c0 129 48 209 186 209c112 0 193 -62 193 -145c0 -61 -33 -78 -33 -102c0 -36 79 -59 79 -183c0 -76 -44 -160 -147 -160c-30 0 -54 5 -83 25l17 128c8 -3 16 -4 24 -3c18 2 38 16 37 48c-2 59 -88 60 -88 132c0 42 49 72 49 106c0 25 -21 40 -46 40
c-30 0 -43 -22 -43 -58l-2 -413h-143z" />
    <glyph glyph-name="t" unicode="t" horiz-adv-x="339" 
d="M297 305h-66v-71c0 -55 4 -85 36 -89c10 -1 20 -1 28 -1v-143c-17 -1 -29 -2 -42 -2c-111 0 -172 39 -172 185v121h-49v135h50v117l150 8v-125h65v-135z" />
    <glyph glyph-name="tbar" unicode="&#x167;" horiz-adv-x="339" 
d="M297 305h-66v-42h66l-1 -65h-64c3 -32 11 -50 35 -53c10 -1 20 -1 28 -1v-143c-17 -1 -29 -2 -42 -2c-111 0 -172 39 -172 185v14h-49v65h49v42h-49v135h50v117l150 8v-125h65v-135z" />
    <glyph glyph-name="tcaron" unicode="&#x165;" horiz-adv-x="451" 
d="M317 590l137 -7l-25 -206l-105 2zM212 565v-125h65v-135h-66v-71c0 -55 4 -85 36 -89c10 -1 20 -1 28 -1v-143c-17 -1 -29 -2 -42 -2c-111 0 -172 39 -172 185v121h-49v135h50v117z" />
    <glyph glyph-name="uni0163" unicode="&#x163;" horiz-adv-x="339" 
d="M242 -28c55 11 101 -26 101 -78c0 -63 -49 -100 -114 -100c-44 0 -76 18 -94 33l43 66c8 -6 21 -14 44 -14c11 0 26 5 26 20c0 25 -27 26 -44 25l-42 -3v89h9c-59 20 -90 69 -90 174v121h-49v135h50v117l150 8v-125h65v-135h-66v-71c0 -55 4 -85 36 -89
c10 -1 20 -1 28 -1v-143c-17 -1 -29 -2 -42 -2h-4z" />
    <glyph glyph-name="uni021B" unicode="&#x21b;" horiz-adv-x="339" 
d="M297 305h-66v-71c0 -55 4 -85 36 -89c10 -1 20 -1 28 -1v-143c-17 -1 -29 -2 -42 -2c-111 0 -172 39 -172 185v121h-49v135h50v117l150 8v-125h65v-135zM112 -196l37 172l113 -9l-10 -178z" />
    <glyph glyph-name="u" unicode="u" horiz-adv-x="479" 
d="M283 440h149v-440h-145l-5 63c-23 -36 -56 -60 -96 -63c-79 -7 -144 49 -144 155v279l150 8v-250c0 -36 13 -64 49 -62c16 1 30 10 41 23z" />
    <glyph glyph-name="uacute" unicode="&#xfa;" horiz-adv-x="479" 
d="M437 596l-208 -90l-45 92l186 122zM282 153l1 287h149v-440h-145l-5 63c-23 -36 -56 -60 -96 -63c-79 -7 -144 49 -144 155v279l150 8v-250c0 -36 13 -64 49 -62c16 1 30 10 41 23z" />
    <glyph glyph-name="uni01D4" unicode="&#x1d4;" horiz-adv-x="479" 
d="M388 632l-147 -119l-146 124l75 76l71 -61l75 60zM283 440h149v-440h-145l-5 63c-23 -36 -56 -60 -96 -63c-79 -7 -144 49 -144 155v279l150 8v-250c0 -36 13 -64 49 -62c16 1 30 10 41 23z" />
    <glyph glyph-name="ucircumflex" unicode="&#xfb;" horiz-adv-x="479" 
d="M241 576l-71 -61l-75 76l146 124l147 -119l-72 -80zM283 440h149v-440h-145l-5 63c-23 -36 -56 -60 -96 -63c-79 -7 -144 49 -144 155v279l150 8v-250c0 -36 13 -64 49 -62c16 1 30 10 41 23z" />
    <glyph glyph-name="udieresis" unicode="&#xfc;" horiz-adv-x="479" 
d="M328 534c-39 0 -65 27 -65 67c0 39 26 65 65 65c40 0 67 -26 67 -65c0 -40 -27 -67 -67 -67zM134 533c-39 0 -65 27 -65 67c0 39 26 65 65 65c40 0 67 -26 67 -65c0 -40 -27 -67 -67 -67zM283 440h149v-440h-145l-5 63c-23 -36 -56 -60 -96 -63c-79 -7 -144 49 -144 155
v279l150 8v-250c0 -36 13 -64 49 -62c16 1 30 10 41 23z" />
    <glyph glyph-name="ugrave" unicode="&#xf9;" horiz-adv-x="479" 
d="M293 597l-46 -92l-208 90l68 124zM283 440h149v-440h-145l-5 63c-23 -36 -56 -60 -96 -63c-79 -7 -144 49 -144 155v279l150 8v-250c0 -36 13 -64 49 -62c16 1 30 10 41 23z" />
    <glyph glyph-name="uhungarumlaut" unicode="&#x171;" horiz-adv-x="479" 
d="M204 504l-115 -2l-7 220l137 -6zM401 711l-29 -211l-115 2l7 216zM283 440h149v-440h-145l-5 63c-23 -36 -56 -60 -96 -63c-79 -7 -144 49 -144 155v279l150 8v-250c0 -36 13 -64 49 -62c16 1 30 10 41 23z" />
    <glyph glyph-name="umacron" unicode="&#x16b;" horiz-adv-x="479" 
d="M376 646l-1 -115h-267v115h268zM283 440h149v-440h-145l-5 63c-23 -36 -56 -60 -96 -63c-79 -7 -144 49 -144 155v279l150 8v-250c0 -36 13 -64 49 -62c16 1 30 10 41 23z" />
    <glyph glyph-name="uogonek" unicode="&#x173;" horiz-adv-x="479" 
d="M432 0c-61 -28 -96 -48 -110 -69c-22 -33 18 -71 51 -23l56 -61c-68 -94 -204 -53 -195 54c3 41 32 77 77 99h-24l-5 63c-23 -36 -56 -60 -96 -63c-79 -7 -144 49 -144 155v279l150 8v-250c0 -36 13 -64 49 -62c16 1 30 10 41 23l1 287h149v-440z" />
    <glyph glyph-name="uring" unicode="&#x16f;" horiz-adv-x="479" 
d="M241 497c-66 0 -116 54 -116 117c0 64 50 116 116 116c64 0 117 -52 117 -116c0 -63 -53 -117 -117 -117zM238 646c-17 0 -30 -14 -30 -33c0 -20 13 -33 30 -33c19 0 34 13 34 33c0 19 -15 33 -34 33zM283 440h149v-440h-145l-5 63c-23 -36 -56 -60 -96 -63
c-79 -7 -144 49 -144 155v279l150 8v-250c0 -36 13 -64 49 -62c16 1 30 10 41 23z" />
    <glyph glyph-name="v" unicode="v" horiz-adv-x="434" 
d="M292 444l145 -9l-140 -435h-160l-140 435l145 9l75 -283z" />
    <glyph glyph-name="w" unicode="w" horiz-adv-x="604" 
d="M462 447l140 -9l-107 -438h-140l-52 190h-1l-53 -190h-140l-107 438l140 9l54 -260l65 248h85l64 -241z" />
    <glyph glyph-name="wacute" unicode="&#x1e83;" horiz-adv-x="604" 
d="M497 591l-208 -90l-45 92l186 122zM462 447l140 -9l-107 -438h-140l-52 190h-1l-53 -190h-140l-107 438l140 9l54 -260l65 248h85l64 -241z" />
    <glyph glyph-name="wcircumflex" unicode="&#x175;" horiz-adv-x="604" 
d="M301 571l-71 -61l-75 76l146 124l147 -119l-72 -80zM462 447l140 -9l-107 -438h-140l-52 190h-1l-53 -190h-140l-107 438l140 9l54 -260l65 248h85l64 -241z" />
    <glyph glyph-name="wdieresis" unicode="&#x1e85;" horiz-adv-x="604" 
d="M388 529c-39 0 -65 27 -65 67c0 39 26 65 65 65c40 0 67 -26 67 -65c0 -40 -27 -67 -67 -67zM194 528c-39 0 -65 27 -65 67c0 39 26 65 65 65c40 0 67 -26 67 -65c0 -40 -27 -67 -67 -67zM462 447l140 -9l-107 -438h-140l-52 190h-1l-53 -190h-140l-107 438l140 9
l54 -260l65 248h85l64 -241z" />
    <glyph glyph-name="wgrave" unicode="&#x1e81;" horiz-adv-x="604" 
d="M353 592l-46 -92l-208 90l68 124zM462 447l140 -9l-107 -438h-140l-52 190h-1l-53 -190h-140l-107 438l140 9l54 -260l65 248h85l64 -241z" />
    <glyph glyph-name="x" unicode="x" horiz-adv-x="483" 
d="M476 436l-152 -217l149 -219h-160l-73 116l-73 -116h-160l149 219l-147 217l160 10l72 -119l75 119z" />
    <glyph glyph-name="y" unicode="y" horiz-adv-x="470" 
d="M273 440h150v-421c0 -152 -98 -231 -221 -231c-79 0 -142 48 -160 72l66 106c18 -16 50 -42 94 -42c45 0 73 35 73 94v34c-23 -30 -53 -49 -89 -52c-79 -7 -144 49 -144 155v279l150 8v-250c0 -36 13 -64 49 -62c13 1 24 7 33 15z" />
    <glyph glyph-name="yacute" unicode="&#xfd;" horiz-adv-x="470" 
d="M425 596l-208 -90l-45 92l186 122zM274 145l-1 295h150v-421c0 -152 -98 -231 -221 -231c-79 0 -142 48 -160 72l66 106c18 -16 50 -42 94 -42c45 0 73 35 73 94v34c-23 -30 -53 -49 -89 -52c-79 -7 -144 49 -144 155v279l150 8v-250c0 -36 13 -64 49 -62
c13 1 24 7 33 15z" />
    <glyph glyph-name="ycircumflex" unicode="&#x177;" horiz-adv-x="470" 
d="M229 576l-71 -61l-75 76l146 124l147 -119l-72 -80zM273 440h150v-421c0 -152 -98 -231 -221 -231c-79 0 -142 48 -160 72l66 106c18 -16 50 -42 94 -42c45 0 73 35 73 94v34c-23 -30 -53 -49 -89 -52c-79 -7 -144 49 -144 155v279l150 8v-250c0 -36 13 -64 49 -62
c13 1 24 7 33 15z" />
    <glyph glyph-name="ydieresis" unicode="&#xff;" horiz-adv-x="470" 
d="M316 534c-39 0 -65 27 -65 67c0 39 26 65 65 65c40 0 67 -26 67 -65c0 -40 -27 -67 -67 -67zM122 533c-39 0 -65 27 -65 67c0 39 26 65 65 65c40 0 67 -26 67 -65c0 -40 -27 -67 -67 -67zM273 440h150v-421c0 -152 -98 -231 -221 -231c-79 0 -142 48 -160 72l66 106
c18 -16 50 -42 94 -42c45 0 73 35 73 94v34c-23 -30 -53 -49 -89 -52c-79 -7 -144 49 -144 155v279l150 8v-250c0 -36 13 -64 49 -62c13 1 24 7 33 15z" />
    <glyph glyph-name="ygrave" unicode="&#x1ef3;" horiz-adv-x="470" 
d="M281 597l-46 -92l-208 90l68 124zM273 440h150v-421c0 -152 -98 -231 -221 -231c-79 0 -142 48 -160 72l66 106c18 -16 50 -42 94 -42c45 0 73 35 73 94v34c-23 -30 -53 -49 -89 -52c-79 -7 -144 49 -144 155v279l150 8v-250c0 -36 13 -64 49 -62c13 1 24 7 33 15z" />
    <glyph glyph-name="z" unicode="z" horiz-adv-x="427" 
d="M385 440v-125l-156 -175h156v-140h-343v125l156 175h-156v140h343z" />
    <glyph glyph-name="zacute" unicode="&#x17a;" horiz-adv-x="427" 
d="M413 586l-208 -90l-45 92l186 122zM42 300v140h343v-125l-156 -175h156v-140h-343v125l156 175h-156z" />
    <glyph glyph-name="zcaron" unicode="&#x17e;" horiz-adv-x="427" 
d="M364 622l-147 -119l-146 124l75 76l71 -61l75 60zM385 440v-125l-156 -175h156v-140h-343v125l156 175h-156v140h343z" />
    <glyph glyph-name="zdotaccent" unicode="&#x17c;" horiz-adv-x="427" 
d="M218 484c-48 0 -82 33 -82 83c0 47 34 82 82 82c49 0 83 -35 83 -82c0 -50 -34 -83 -83 -83zM385 440v-125l-156 -175h156v-140h-343v125l156 175h-156v140h343z" />
    <glyph glyph-name="f_f.dlig" horiz-adv-x="560" 
d="M505 474c-14 -3 -31 -12 -34 -44h66v-125h-66v-305h-150v305h-98v-305h-149l-1 305h-46v125h46v9c0 99 56 162 162 162c49 0 99 -17 131 -40l-4 -8c31 32 76 47 128 47c29 0 72 -8 87 -16l-32 -113c-12 2 -24 5 -40 3zM321 430v2c0 17 2 33 4 47v-1c-10 1 -26 6 -49 6
c-31 0 -51 -14 -53 -46v-8h98z" />
    <glyph glyph-name="f_f_i.dlig" horiz-adv-x="787" 
d="M524 484c-31 0 -51 -14 -53 -46v-8h76v-125h-76v-305h-149l-1 305h-98v-305h-149l-1 305h-46v125h46v9c0 99 56 162 162 162c49 0 99 -17 131 -40c27 26 66 40 117 40c49 0 99 -17 131 -40l-41 -83c-10 1 -26 6 -49 6zM321 430v9c0 14 1 27 3 39c-10 1 -26 6 -48 6
c-31 0 -51 -14 -53 -46v-8h98zM597 422l150 8l-1 -430h-150z" />
    <glyph glyph-name="zero" unicode="0" horiz-adv-x="525" 
d="M263 -5c-126 0 -226 98 -226 279v13c0 180 99 279 226 279c126 0 225 -98 225 -279v-13c0 -180 -96 -279 -225 -279zM263 134c43 0 77 32 77 140v13c0 108 -32 140 -76 140s-78 -32 -78 -140v-13c0 -108 32 -140 77 -140z" />
    <glyph glyph-name="one" unicode="1" horiz-adv-x="326" 
d="M17 546l242 17v-563h-151v407l-91 -6v145z" />
    <glyph glyph-name="two" unicode="2" horiz-adv-x="444" 
d="M240 142h177v-142h-380v124l179 193c15 16 37 45 37 76c0 23 -10 43 -36 43c-24 0 -38 -21 -40 -51l-139 35c18 100 92 155 180 155c111 0 187 -77 187 -180c0 -63 -40 -112 -67 -144z" />
    <glyph glyph-name="three" unicode="3" horiz-adv-x="446" 
d="M307 337c67 -9 112 -71 112 -148c0 -107 -87 -194 -194 -194c-90 0 -168 62 -188 145l132 38c1 -20 23 -50 51 -50c33 0 57 27 57 61c0 33 -15 60 -46 60c-24 0 -37 -10 -48 -19l-59 102l104 93h-172v135h341v-145z" />
    <glyph glyph-name="four" unicode="4" horiz-adv-x="513" 
d="M476 234v-140h-46v-94h-150l1 94h-254l86 466h140l-47 -326h77l2 184l145 -8v-176h46z" />
    <glyph glyph-name="five" unicode="5" horiz-adv-x="446" 
d="M271 353c77 -2 148 -66 148 -163c0 -107 -87 -194 -194 -194c-90 0 -168 62 -188 145l132 38c1 -20 23 -50 51 -50c33 0 57 27 57 61c0 33 -24 60 -55 60c-24 0 -38 -14 -48 -29l-119 72l17 267h311v-140h-173l-3 -80c21 9 43 14 64 13z" />
    <glyph glyph-name="six" unicode="6" horiz-adv-x="458" 
d="M282 361c92 0 149 -91 149 -165c0 -112 -76 -201 -203 -201c-112 0 -201 84 -201 198c0 127 133 308 173 367h155c-34 -55 -84 -136 -123 -210c16 7 33 11 50 11zM227 128c34 0 54 28 54 62s-20 60 -54 60c-31 0 -52 -23 -54 -55v-5c0 -34 20 -62 54 -62z" />
    <glyph glyph-name="seven" unicode="7" horiz-adv-x="404" 
d="M27 560h380l-194 -560h-152l146 415h-180v145z" />
    <glyph glyph-name="eight" unicode="8" horiz-adv-x="477" 
d="M368 305c43 -27 72 -72 72 -134c0 -103 -88 -176 -201 -176s-202 73 -202 176c0 62 29 107 72 134c-28 26 -46 61 -46 98c0 90 71 162 176 162c104 0 175 -72 175 -162c0 -37 -17 -72 -46 -98zM239 447c-24 0 -43 -19 -43 -48s19 -47 43 -47s43 18 43 47s-19 48 -43 48z
M239 117c33 0 56 23 56 62s-23 62 -56 62c-34 0 -56 -23 -56 -62s22 -62 56 -62z" />
    <glyph glyph-name="nine" unicode="9" horiz-adv-x="458" 
d="M224 565c124 0 207 -91 207 -198c0 -102 -103 -238 -163 -367h-150c27 54 69 134 104 209c-14 -6 -29 -10 -46 -10c-72 -1 -149 54 -149 168c0 109 85 198 197 198zM171 379c0 -35 20 -63 54 -63s54 27 54 65c0 31 -20 57 -53 57c-35 0 -55 -26 -55 -59z" />
    <glyph glyph-name="asterisk" unicode="*" horiz-adv-x="451" 
d="M391 473l-123 -38l123 -40l-49 -85l-90 82l21 -121h-95l21 121l-90 -82l-49 85l123 40l-123 38l49 85l90 -80l-22 119h95l-20 -119l90 80z" />
    <glyph glyph-name="backslash" unicode="\" horiz-adv-x="307" 
d="M162 0l-192 657h145l192 -657h-145z" />
    <glyph glyph-name="periodcentered" unicode="&#xb7;" horiz-adv-x="175" 
d="M96 215c-47 0 -79 33 -79 80c0 46 32 78 79 78c46 0 78 -32 78 -78c0 -47 -32 -80 -78 -80z" />
    <glyph glyph-name="bullet" unicode="&#x2022;" horiz-adv-x="241" 
d="M121 142c-61 0 -104 43 -104 104c0 60 43 102 104 102c60 0 102 -42 102 -102c0 -61 -42 -104 -102 -104z" />
    <glyph glyph-name="colon" unicode=":" horiz-adv-x="244" 
d="M116 278c-47 0 -79 33 -79 80c0 46 32 78 79 78c46 0 78 -32 78 -78c0 -47 -32 -80 -78 -80zM119 5c-47 0 -79 33 -79 80c0 46 32 78 79 78c46 0 78 -32 78 -78c0 -47 -32 -80 -78 -80z" />
    <glyph glyph-name="comma" unicode="," horiz-adv-x="185" 
d="M145 -120l-135 16l57 241l108 -9z" />
    <glyph glyph-name="ellipsis" unicode="&#x2026;" horiz-adv-x="727" 
d="M96 0c-47 0 -79 33 -79 80c0 46 32 78 79 78c46 0 78 -32 78 -78c0 -47 -32 -80 -78 -80zM347 0c-47 0 -79 33 -79 80c0 46 32 78 79 78c46 0 78 -32 78 -78c0 -47 -32 -80 -78 -80zM596 0c-47 0 -79 33 -79 80c0 46 32 78 79 78c46 0 78 -32 78 -78
c0 -47 -32 -80 -78 -80z" />
    <glyph glyph-name="exclam" unicode="!" horiz-adv-x="249" 
d="M82 205l-35 418h160l-25 -418h-100zM133 -3c-47 0 -79 33 -79 80c0 46 32 78 79 78c46 0 78 -32 78 -78c0 -47 -32 -80 -78 -80z" />
    <glyph glyph-name="exclamdown" unicode="&#xa1;" horiz-adv-x="273" 
d="M140 440c-47 0 -79 33 -79 80c0 46 32 78 79 78c46 0 78 -32 78 -78c0 -47 -32 -80 -78 -80zM216 -51h-162l31 418h100z" />
    <glyph glyph-name="uni203D" unicode="&#x203d;" horiz-adv-x="651" 
d="M446 191l-147 34l2 17c16 94 76 124 112 145c30 19 38 29 41 49c5 32 -12 51 -34 54c-27 4 -47 -11 -52 -44l-142 62c30 91 120 141 206 129c139 -20 188 -125 175 -214c-14 -97 -69 -120 -110 -148c-25 -16 -44 -31 -48 -58c-2 -13 -2 -13 -3 -26zM103 195l-71 414
l159 14l11 -419zM344 -2c-46 6 -73 43 -67 90c7 46 43 73 90 66c45 -6 72 -43 66 -88c-7 -47 -43 -75 -89 -68zM172 -7c-47 -5 -82 26 -86 72s25 81 72 85c46 4 80 -25 84 -71c5 -47 -24 -82 -70 -86z" />
    <glyph glyph-name="numbersign" unicode="#" horiz-adv-x="580" 
d="M551 329h-59l-24 -108h67l-30 -130h-67l-20 -91h-140l20 91h-100l-20 -91h-140l20 91h-67l30 130h67l24 108h-71l30 130h70l23 101h140l-23 -101h100l23 101h140l-23 -101h60zM328 221l24 108h-100l-24 -108h100z" />
    <glyph glyph-name="period" unicode="." horiz-adv-x="211" 
d="M106 0c-47 0 -79 33 -79 80c0 46 32 78 79 78c46 0 78 -32 78 -78c0 -47 -32 -80 -78 -80z" />
    <glyph glyph-name="question" unicode="?" horiz-adv-x="433" 
d="M274 201l-150 13v17c2 95 57 133 90 159c27 23 34 34 34 55c0 32 -19 48 -42 48c-27 0 -45 -17 -45 -51l-149 42c17 94 99 156 186 156c140 0 203 -97 203 -187c0 -98 -51 -128 -88 -162c-22 -19 -39 -37 -39 -64v-26zM201 -5c-47 0 -79 33 -79 80c0 46 32 78 79 78
c46 0 78 -32 78 -78c0 -47 -32 -80 -78 -80z" />
    <glyph glyph-name="questiondown" unicode="&#xbf;" horiz-adv-x="421" 
d="M239 327c-47 0 -79 33 -79 80c0 46 32 78 79 78c46 0 78 -32 78 -78c0 -47 -32 -80 -78 -80zM159 283l150 -13v-17c-2 -100 -57 -143 -90 -169c-27 -23 -34 -34 -34 -55c0 -32 19 -48 42 -48c27 0 45 17 45 51l149 -42c-17 -94 -99 -156 -186 -156
c-140 0 -203 97 -203 187c0 98 51 128 88 162c22 19 39 42 39 74v26z" />
    <glyph glyph-name="quotedbl" unicode="&#x22;" horiz-adv-x="422" 
d="M34 386l-19 255l150 6l-15 -261h-116zM261 386l-19 255l150 6l-15 -261h-116z" />
    <glyph glyph-name="quotesingle" unicode="'" horiz-adv-x="200" 
d="M44 386l-19 255l150 6l-15 -261h-116z" />
    <glyph glyph-name="semicolon" unicode=";" horiz-adv-x="259" 
d="M143 276c-47 0 -79 33 -79 80c0 46 32 78 79 78c46 0 78 -32 78 -78c0 -47 -32 -80 -78 -80zM145 -135l-135 16l57 241l108 -9z" />
    <glyph glyph-name="slash" unicode="/" horiz-adv-x="307" 
d="M0 0l192 657h145l-192 -657h-145z" />
    <glyph glyph-name="underscore" unicode="_" horiz-adv-x="721" 
d="M67 -160l12 140h575l-12 -140h-575z" />
    <glyph glyph-name="braceleft" unicode="{" horiz-adv-x="377" 
d="M255 -147c-84 0 -148 44 -148 125v99c0 74 -11 130 -90 130v150c79 0 90 46 90 130v99c0 78 68 124 148 125c29 0 53 -2 85 -10l-10 -150c-9 0 -18 -1 -25 -3c-27 -8 -41 -30 -41 -62v-110c0 -55 -45 -95 -97 -96v-4c52 0 94 -44 94 -93v-110c0 -31 14 -54 44 -62
c8 -2 16 -3 25 -3l10 -145c-27 -7 -54 -10 -85 -10z" />
    <glyph glyph-name="braceright" unicode="}" horiz-adv-x="377" 
d="M122 -147c-31 0 -58 3 -85 10l10 145c9 0 17 1 25 3c30 8 44 31 44 62v110c0 49 42 93 94 93v4c-52 1 -97 41 -97 96v110c0 32 -14 54 -41 62c-7 2 -16 3 -25 3l-10 150c32 8 56 10 85 10c80 -1 148 -47 148 -125v-99c0 -84 11 -130 90 -130v-150c-79 0 -90 -56 -90 -130
v-99c0 -81 -64 -125 -148 -125z" />
    <glyph glyph-name="bracketleft" unicode="[" horiz-adv-x="318" 
d="M57 -149v857h224v-150l-74 -5v-547l74 -5v-150h-224z" />
    <glyph glyph-name="bracketright" unicode="]" horiz-adv-x="318" 
d="M37 -150v150l74 5v548l-74 5v150h224v-858h-224z" />
    <glyph glyph-name="parenleft" unicode="(" horiz-adv-x="291" 
d="M158 -141c-88 123 -131 279 -131 428c0 156 44 308 134 432l123 -81c-68 -96 -112 -229 -112 -351c0 -118 44 -252 109 -346z" />
    <glyph glyph-name="parenright" unicode=")" horiz-adv-x="291" 
d="M133 -141l-123 82c65 94 109 228 109 346c0 122 -44 255 -112 351l123 81c90 -124 134 -276 134 -432c0 -149 -43 -305 -131 -428z" />
    <glyph glyph-name="emdash" unicode="&#x2014;" horiz-adv-x="662" 
d="M67 175l12 140h516l-12 -140h-516z" />
    <glyph glyph-name="endash" unicode="&#x2013;" horiz-adv-x="580" 
d="M67 175l12 140h434l-12 -140h-434z" />
    <glyph glyph-name="uni2015" unicode="&#x2015;" horiz-adv-x="540" 
d="M-3 246v65h546v-65h-546z" />
    <glyph glyph-name="hyphen" unicode="-" horiz-adv-x="416" 
d="M67 175l30 140h252l-30 -140h-252z" />
    <glyph glyph-name="quotedblleft" unicode="&#x201c;" horiz-adv-x="470" 
d="M175 368l-145 18l51 256l115 -10zM409 368l-145 18l51 256l115 -10z" />
    <glyph glyph-name="quotedblright" unicode="&#x201d;" horiz-adv-x="471" 
d="M155 368l-115 10l21 263l145 -17zM390 368l-115 10l21 263l145 -17z" />
    <glyph glyph-name="quoteleft" unicode="&#x2018;" horiz-adv-x="236" 
d="M175 368l-145 18l51 256l115 -10z" />
    <glyph glyph-name="quoteright" unicode="&#x2019;" horiz-adv-x="236" 
d="M155 378l-115 10l21 263l145 -17z" />
    <glyph glyph-name="colon_parenleft.liga" horiz-adv-x="610" 
d="M457 -141c-88 123 -131 279 -131 428c0 156 44 308 134 432l123 -81c-68 -96 -112 -229 -112 -351c0 -118 44 -252 109 -346zM116 321c-47 0 -79 33 -79 80c0 46 32 78 79 78c46 0 78 -32 78 -78c0 -47 -32 -80 -78 -80zM119 48c-47 0 -79 33 -79 80c0 46 32 78 79 78
c46 0 78 -32 78 -78c0 -47 -32 -80 -78 -80z" />
    <glyph glyph-name="colon_parenright.liga" horiz-adv-x="591" 
d="M433 -141l-123 82c65 94 109 228 109 346c0 122 -44 255 -112 351l123 81c90 -124 134 -276 134 -432c0 -149 -43 -305 -131 -428zM116 329c-47 0 -79 33 -79 80c0 46 32 78 79 78c46 0 78 -32 78 -78c0 -47 -32 -80 -78 -80zM119 56c-47 0 -79 33 -79 80
c0 46 32 78 79 78c46 0 78 -32 78 -78c0 -47 -32 -80 -78 -80z" />
    <glyph glyph-name="exclam_question.liga" horiz-adv-x="651" 
d="M446 191l-147 34l2 17c16 94 76 124 112 145c30 19 38 29 41 49c5 32 -12 51 -34 54c-27 4 -47 -11 -52 -44l-142 62c30 91 120 141 206 129c139 -20 188 -125 175 -214c-14 -97 -69 -120 -110 -148c-25 -16 -44 -31 -48 -58c-2 -13 -2 -13 -3 -26zM103 195l-71 414
l159 14l11 -419zM344 -2c-46 6 -73 43 -67 90c7 46 43 73 90 66c45 -6 72 -43 66 -88c-7 -47 -43 -75 -89 -68zM172 -7c-47 -5 -82 26 -86 72s25 81 72 85c46 4 80 -25 84 -71c5 -47 -24 -82 -70 -86z" />
    <glyph glyph-name="semicolon_parenright.liga" horiz-adv-x="586" 
d="M428 -141l-123 82c65 94 109 228 109 346c0 122 -44 255 -112 351l123 81c90 -124 134 -276 134 -432c0 -149 -43 -305 -131 -428zM143 351c-47 0 -79 33 -79 80c0 46 32 78 79 78c46 0 78 -32 78 -78c0 -47 -32 -80 -78 -80zM145 -60l-135 16l57 241l108 -9z" />
    <glyph glyph-name="space" unicode=" " horiz-adv-x="270" 
 />
    <glyph glyph-name="cent" unicode="&#xa2;" horiz-adv-x="461" 
d="M240 185c25 0 47 15 55 45l121 -78c-30 -54 -75 -85 -122 -98h7l5 -93l-132 3l8 91c-94 26 -144 117 -144 214v6c0 98 50 188 145 214l-8 93l130 3l-5 -93l-12 -1c53 -13 102 -47 130 -104l-122 -75c-9 30 -30 47 -56 47c-44 0 -59 -40 -59 -84v-6c0 -44 15 -84 59 -84z
" />
    <glyph glyph-name="dollar" unicode="$" horiz-adv-x="474" 
d="M421 172c0 -79 -47 -139 -115 -164l6 -88h-149l6 85c-63 20 -115 71 -130 148l145 40c6 -31 28 -45 45 -45c15 0 33 9 32 32c-3 59 -224 47 -224 214c0 77 54 142 131 164l-5 83h148l-7 -92c62 -25 107 -77 116 -136l-136 -37c-12 31 -33 42 -51 42
c-19 0 -33 -14 -28 -33c13 -47 216 -28 216 -213z" />
    <glyph glyph-name="Euro" unicode="&#x20ac;" horiz-adv-x="544" 
d="M402 203l125 -45c-35 -114 -125 -163 -218 -163c-109 0 -208 66 -238 193h-54v70h45v14v16v12h-45v70h54c29 128 128 195 238 195c90 0 178 -55 214 -154l-125 -53c-14 48 -35 79 -94 79c-34 0 -67 -17 -83 -67h97v-70h-108v-12v-16v-14h108v-70h-96
c16 -48 48 -65 82 -65c59 0 80 29 98 80z" />
    <glyph glyph-name="sterling" unicode="&#xa3;" horiz-adv-x="459" 
d="M399 149l43 -116c-40 -28 -73 -37 -108 -37c-63 0 -85 38 -149 37c-25 0 -56 -9 -88 -33l-80 100c67 55 85 101 87 151v1h-76v120h46c-8 21 -15 45 -15 81c0 105 85 181 190 181c83 0 154 -52 181 -125l-113 -56c0 26 -30 57 -68 57c-34 0 -61 -27 -61 -63
c0 -23 11 -48 22 -75h115v-120h-89c-4 -37 -21 -65 -38 -87l-1 -2c46 -2 87 -35 138 -35c16 0 47 9 64 21z" />
    <glyph glyph-name="yen" unicode="&#xa5;" horiz-adv-x="496" 
d="M494 556l-143 -282h72v-90h-100v-38h100v-80h-100v-66h-150v66h-99v80h99v38h-99v90h71l-143 282l155 10l91 -210l91 210z" />
    <glyph glyph-name="plus" unicode="+" horiz-adv-x="573" 
d="M516 348v-140h-154v-165h-150v165h-155v140h155v164h150v-164h154z" />
    <glyph glyph-name="minus" unicode="&#x2212;" horiz-adv-x="538" 
d="M67 194v135h404v-135h-404z" />
    <glyph glyph-name="multiply" unicode="&#xd7;" horiz-adv-x="599" 
d="M542 417l-146 -148l145 -147l-99 -97l-143 145l-142 -143l-100 94l145 147l-145 147l100 97l143 -145l142 144z" />
    <glyph glyph-name="divide" unicode="&#xf7;" horiz-adv-x="538" 
d="M265 367c-47 0 -79 33 -79 80c0 46 32 78 79 78c46 0 78 -32 78 -78c0 -47 -32 -80 -78 -80zM57 218v120h424v-120h-424zM265 32c-47 0 -79 33 -79 80c0 46 32 78 79 78c46 0 78 -32 78 -78c0 -47 -32 -80 -78 -80z" />
    <glyph glyph-name="equal" unicode="=" horiz-adv-x="538" 
d="M57 300v135h404v-135h-404zM57 84v135h404v-135h-404z" />
    <glyph glyph-name="notequal" unicode="&#x2260;" horiz-adv-x="538" 
d="M451 300h-125l-22 -81h147v-135h-183l-22 -84h-137l23 84h-85v135h121l21 81h-142v135h179l29 110h136l-29 -110h89v-135z" />
    <glyph glyph-name="greater" unicode="&#x3e;" horiz-adv-x="501" 
d="M167 -47l-105 96l205 240l-205 240l105 96l277 -336z" />
    <glyph glyph-name="less" unicode="&#x3c;" horiz-adv-x="501" 
d="M334 -47l-277 336l277 336l105 -96l-204 -240l204 -240z" />
    <glyph glyph-name="asciitilde" unicode="~" horiz-adv-x="567" 
d="M174 150c-46 24 -91 49 -137 73c11 37 61 133 142 135c65 2 110 -41 153 -38c21 1 47 15 61 55c46 -24 91 -49 137 -73c-12 -43 -58 -133 -134 -135c-61 -2 -123 40 -163 38c-27 -1 -46 -22 -59 -55z" />
    <glyph glyph-name="infinity" unicode="&#x221e;" horiz-adv-x="964" 
d="M692 506c134 0 235 -97 235 -235c0 -129 -100 -235 -235 -235c-95 0 -158 55 -210 120c-50 -65 -113 -120 -210 -120c-136 0 -235 106 -235 235c0 143 101 235 235 235c95 0 159 -55 210 -120c51 65 114 120 210 120zM273 173c52 0 91 42 129 97c-40 55 -78 99 -129 99
c-59 0 -105 -44 -105 -98c0 -55 46 -98 105 -98zM690 173c59 0 105 43 105 98c0 52 -48 98 -105 98c-53 0 -91 -42 -129 -97c39 -55 78 -99 129 -99z" />
    <glyph glyph-name="percent" unicode="%" horiz-adv-x="624" 
d="M68 0l352 560h140l-352 -560h-140zM134 329c-61 0 -104 43 -104 104c0 60 43 102 104 102c60 0 102 -42 102 -102c0 -61 -42 -104 -102 -104zM492 21c-61 0 -104 43 -104 104c0 60 43 102 104 102c60 0 102 -42 102 -102c0 -61 -42 -104 -102 -104z" />
    <glyph glyph-name="at" unicode="@" horiz-adv-x="952" 
d="M895 235v-5c-3 -148 -63 -252 -185 -252c-64 0 -139 12 -179 113c-19 -43 -50 -83 -97 -91c-100 -16 -174 82 -174 210c0 131 80 249 178 231c37 -7 62 -34 78 -66v73l140 -11v-266c0 -36 5 -80 54 -80c57 0 69 94 70 145c-2 168 -120 306 -299 306
c-171 0 -311 -140 -311 -310s140 -311 311 -311c61 -3 133 9 168 19l25 -106c-61 -24 -151 -31 -192 -28c-235 0 -425 191 -425 424c0 234 190 424 425 424c240 0 408 -185 413 -414v-5zM472 126c16 0 31 8 44 21v143c-15 15 -31 23 -48 23c-32 0 -54 -42 -54 -105
c0 -46 19 -82 58 -82z" />
    <glyph glyph-name="ampersand" unicode="&#x26;" horiz-adv-x="562" 
d="M535 267c-25 -39 -52 -84 -82 -126l75 -141h-160l-17 32c-37 -28 -80 -45 -129 -45c-116 0 -195 87 -195 180c0 87 47 167 154 182l-112 210h382v-140h-147l76 -141c11 17 22 36 33 57zM275 147l9 9l-34 64c-68 11 -83 -48 -67 -73c17 -26 62 -28 92 0z" />
    <glyph glyph-name="copyright" unicode="&#xa9;" horiz-adv-x="965" 
d="M482 -116c-218 0 -395 176 -395 395c0 220 177 397 395 397c214 0 396 -177 396 -397c0 -219 -182 -395 -396 -395zM482 13c149 0 268 119 268 266c0 149 -119 268 -268 268c-147 0 -270 -119 -270 -268c0 -147 123 -266 270 -266zM483 76c-111 0 -193 92 -193 202
c0 114 82 203 193 203c60 0 113 -27 152 -70l-92 -97c-11 14 -29 29 -60 29c-32 0 -64 -27 -64 -65c0 -36 32 -68 64 -68c22 0 42 15 54 32l95 -97c-38 -42 -90 -69 -149 -69z" />
    <glyph glyph-name="registered" unicode="&#xae;" horiz-adv-x="412" 
d="M205 295c-104 0 -188 85 -188 189s84 189 188 189c105 0 190 -85 190 -189s-85 -189 -190 -189zM205 355c72 0 129 58 129 129s-57 129 -129 129c-70 0 -127 -58 -127 -129s57 -129 127 -129zM151 403v162l55 4c31 1 61 -17 61 -59c0 -23 -9 -42 -26 -51l34 -56h-52
l-27 47h-1v-47h-44zM193 488h16c7 1 14 6 14 21c0 8 -4 14 -9 17s-13 2 -21 0v-38z" />
    <glyph glyph-name="degree" unicode="&#xb0;" horiz-adv-x="364" 
d="M182 364c-80 0 -142 65 -142 142c0 79 62 142 142 142c79 0 142 -63 142 -142c0 -77 -63 -142 -142 -142zM180 462c26 0 42 18 42 42s-16 44 -42 44c-23 0 -41 -20 -41 -44s18 -42 41 -42z" />
    <glyph glyph-name="bar" unicode="|" horiz-adv-x="326" 
d="M87 -143v853l150 5v-858h-150z" />
    <glyph glyph-name="uni2116" unicode="&#x2116;" horiz-adv-x="933" 
d="M352 276v284h150v-560h-135l-165 279v-279h-150v555l135 9zM721 280c-80 0 -142 65 -142 142c0 79 62 142 142 142c79 0 142 -63 142 -142c0 -77 -63 -142 -142 -142zM719 464c-23 0 -41 -20 -41 -44s18 -42 41 -42c26 0 42 18 42 42s-16 44 -42 44zM587 93v115h268
l-1 -115h-267z" />
    <glyph glyph-name="asciicircum" unicode="^" horiz-adv-x="570" 
d="M503 458l-93 -93l-126 133l-124 -131l-93 93l217 207z" />
    <glyph glyph-name="uni0308" unicode="&#x308;" 
d="M-74 544c-39 0 -65 27 -65 67c0 39 26 65 65 65c40 0 67 -26 67 -65c0 -40 -27 -67 -67 -67zM-268 543c-39 0 -65 27 -65 67c0 39 26 65 65 65c40 0 67 -26 67 -65c0 -40 -27 -67 -67 -67z" />
    <glyph glyph-name="uni0307" unicode="&#x307;" 
d="M-80 554c-48 0 -82 33 -82 83c0 47 34 82 82 82c49 0 83 -35 83 -82c0 -50 -34 -83 -83 -83z" />
    <glyph glyph-name="gravecomb" unicode="&#x300;" 
d="M-43 515l-208 90l68 124l186 -122z" />
    <glyph glyph-name="acutecomb" unicode="&#x301;" 
d="M-210 516l-45 92l186 122l67 -124z" />
    <glyph glyph-name="uni030B" unicode="&#x30b;" 
d="M-194 514l-115 -2l-7 220l137 -6zM-26 510l-115 2l7 216l137 -7z" />
    <glyph glyph-name="caroncomb.alt" 
d="M-22 237l-105 2l-7 211l137 -7z" />
    <glyph glyph-name="uni0302" unicode="&#x302;" 
d="M3 606l-72 -80l-75 60l-71 -61l-75 76l146 124z" />
    <glyph glyph-name="uni030C" unicode="&#x30c;" 
d="M-69 722l72 -80l-147 -119l-146 124l75 76l71 -61z" />
    <glyph glyph-name="uni0306" unicode="&#x306;" 
d="M-149 529c-65 0 -122 36 -152 90l78 67c14 -19 40 -44 74 -44c40 0 59 24 74 44l78 -67c-30 -55 -86 -90 -152 -90z" />
    <glyph glyph-name="uni030A" unicode="&#x30a;" 
d="M-114 507c-66 0 -116 54 -116 117c0 64 50 116 116 116c64 0 117 -52 117 -116c0 -63 -53 -117 -117 -117zM-117 590c19 0 34 13 34 33c0 19 -15 33 -34 33c-17 0 -30 -14 -30 -33c0 -20 13 -33 30 -33z" />
    <glyph glyph-name="tildecomb" unicode="&#x303;" 
d="M-235 541l-101 53c9 24 44 99 104 99c42 0 73 -27 97 -27c18 0 25 18 36 42l102 -51c-9 -24 -42 -104 -106 -104c-47 0 -74 29 -97 29c-16 0 -27 -21 -35 -41z" />
    <glyph glyph-name="uni0304" unicode="&#x304;" 
d="M-265 541v115h268l-1 -115h-267z" />
    <glyph glyph-name="uni0312" unicode="&#x312;" 
d="M-137 715l140 -15l-37 -172l-113 9z" />
    <glyph glyph-name="uni0326" unicode="&#x326;" 
d="M-11 -221l-140 15l37 172l113 -9z" />
    <glyph glyph-name="uni0327" unicode="&#x327;" 
d="M-98 -38c55 11 101 -26 101 -78c0 -63 -49 -100 -114 -100c-44 0 -76 18 -94 33l43 66c8 -6 21 -14 44 -14c11 0 26 5 26 20c0 25 -27 26 -44 25l-42 -3v89h89z" />
    <glyph glyph-name="uni0328" unicode="&#x328;" 
d="M-273 -99c4 48 43 90 102 109l96 -10c-61 -28 -96 -48 -110 -69c-22 -33 18 -71 51 -23l56 -61c-68 -94 -204 -53 -195 54z" />
    <glyph glyph-name="uni0335" unicode="&#x335;" 
d="M-267 195v65h265l-1 -65h-264z" />
    <glyph glyph-name="uni0337" unicode="&#x337;" 
d="M-413 0l-45 46l415 416l46 -46z" />
    <glyph glyph-name="uni0338" unicode="&#x338;" 
d="M-492 -7l-75 75l490 508l76 -75z" />
    <glyph glyph-name="uni0307.alt" 
d="M-64 584c-39 0 -65 27 -65 67c0 39 26 65 65 65c40 0 67 -26 67 -65c0 -40 -27 -67 -67 -67z" />
    <glyph glyph-name="_f.f.alt" horiz-adv-x="280" 
d="M276 484c-31 0 -51 -14 -53 -46v-8h76v-125h-76v-305h-149l-1 305h-46v125h46v9c0 99 56 162 162 162c49 0 99 -17 131 -40l-41 -83c-10 1 -26 6 -49 6z" />
    </font>
</defs>
</svg>
