<?xml version="1.0" standalone="no"?>
<!DOCTYPE svg PUBLIC "-//W3C//DTD SVG 1.1//EN" "http://www.w3.org/Graphics/SVG/1.1/DTD/svg11.dtd" >
<svg xmlns="http://www.w3.org/2000/svg" xmlns:xlink="http://www.w3.org/1999/xlink" version="1.1">
<metadata>
Created by FontForge 20150824 at Mon Aug 15 22:23:36 2016
 By Everything Fonts
Copyright \(c\) 2015 by Eric Lobdell. All rights reserved.
</metadata>
<defs>
<font id="Affogato-Bold" horiz-adv-x="0" >
  <font-face 
    font-family="Affogato Bold"
    font-weight="700"
    font-stretch="normal"
    units-per-em="880"
    panose-1="0 0 8 0 0 0 0 0 0 0"
    ascent="704"
    descent="-176"
    x-height="440"
    cap-height="564"
    bbox="-554 -219 941 851"
    underline-thickness="50"
    underline-position="-100"
    unicode-range="U+0020-FB02"
  />
<missing-glyph horiz-adv-x="503" 
d="M412 800v-1005h-319v1005h319zM335 733h-166v-34h65v-37h-66v-33h167v33h-67v37h67v34zM268 603h-100v-105h167v35h-67v70zM234 569v-36h-33v36h33zM335 471h-167v-33h66v-37h-66v-33h100v70h67v33zM335 411h-34v-66h-133v-34h167v100zM335 288h-101v-56h34v23h33v-47
h-100v80h-33v-113h167v113zM335 115h-167v-114h167v114zM301 81v-47h-100v47h100zM335 -22h-167v-33h70l-70 -47v-34h167v34h-103l71 47h32v33z" />
    <glyph glyph-name="fi" unicode="fi" horiz-adv-x="507" 
d="M264 503c-34 0 -56 -19 -58 -54v-21h82v-105h-82v-323h-124l-1 323h-48v105h48v22c0 91 54 151 151 151c46 0 93 -16 123 -40l-36 -69c-12 5 -30 11 -55 11zM324 425l125 7v-432h-125v425z" />
    <glyph glyph-name="fl" unicode="fl" horiz-adv-x="574" 
d="M80 445c0 106 68 156 157 156c27 0 65 -7 81 -15l-28 -95c-11 2 -23 6 -41 4c-21 -2 -44 -18 -44 -58v-9h74v-105h-74v-323h-125v323h-48v105h48v17zM523 121c9 -1 19 -1 27 -1v-119c-15 -1 -26 -2 -39 -2c-103 0 -157 40 -157 171l1 415l125 7l-1 -382
c0 -55 5 -86 44 -89z" />
    <glyph glyph-name="f_h.liga" unicode="fh" horiz-adv-x="785" 
d="M80 445c0 106 68 156 157 156c27 0 65 -7 81 -15l-28 -95c-11 2 -23 6 -41 4c-21 -2 -44 -18 -44 -58v-9h74v-105h-74v-323h-125v323h-48v105h48v17zM583 445c87 11 149 -62 149 -155v-290h-125v255c0 48 -23 82 -69 77c-22 -2 -43 -18 -58 -36v-296h-125v586l125 7v-222
c25 40 63 69 103 74z" />
    <glyph glyph-name="f_j.liga" unicode="fj" horiz-adv-x="497" 
d="M206 0h-124l-1 323h-48v105h48v22c0 91 54 151 151 151c46 0 93 -16 123 -40l-36 -69c-12 5 -30 11 -55 11c-34 0 -56 -19 -58 -54v-21h82v-105h-82v-323zM318 425l125 7v-440c0 -138 -52 -201 -148 -201c-40 0 -80 14 -95 31l28 103c10 -5 25 -9 41 -8c29 1 49 23 49 75
v433z" />
    <glyph glyph-name="f_t.liga" unicode="ft" horiz-adv-x="604" 
d="M249 495c-21 -2 -44 -18 -44 -58v-9h74v-105h-74v-323h-125v323h-48v105h48v17c0 106 68 156 157 156c27 0 65 -7 81 -15l-28 -95c-11 2 -23 6 -41 4zM563 320h-73v-110c0 -55 6 -86 44 -89c10 -1 20 -1 28 -1v-119c-15 -1 -27 -2 -39 -2c-103 0 -158 40 -158 171v150
h-54v120h55v118l125 6v-124h72v-120z" />
    <glyph glyph-name="q_j.liga" unicode="qj" horiz-adv-x="718" 
d="M601 480c-42 0 -71 28 -71 72c0 41 29 71 71 71s72 -30 72 -71c0 -44 -30 -72 -72 -72zM539 -8v433l125 7v-440c0 -137 -51 -200 -146 -201c-135 -12 -207 38 -207 206v95c-20 -42 -52 -85 -101 -92c-102 -16 -177 80 -177 213c0 131 80 249 184 229
c50 -10 78 -56 94 -99v100l125 -6v-441c0 -27 4 -68 35 -78c6 -1 13 -1 19 -1c29 1 49 23 49 75zM238 106c28 1 50 21 73 51v123c-21 30 -45 51 -72 55c-46 4 -77 -49 -77 -124c0 -63 27 -107 76 -105z" />
    <glyph glyph-name=".notdef" horiz-adv-x="503" 
d="M412 800v-1005h-319v1005h319zM335 733h-166v-34h65v-37h-66v-33h167v33h-67v37h67v34zM268 603h-100v-105h167v35h-67v70zM234 569v-36h-33v36h33zM335 471h-167v-33h66v-37h-66v-33h100v70h67v33zM335 411h-34v-66h-133v-34h167v100zM335 288h-101v-56h34v23h33v-47
h-100v80h-33v-113h167v113zM335 115h-167v-114h167v114zM301 81v-47h-100v47h100zM335 -22h-167v-33h70l-70 -47v-34h167v34h-103l71 47h32v33z" />
    <glyph glyph-name="A" unicode="A" horiz-adv-x="538" 
d="M391 0l-26 91h-191l-26 -91h-125l170 555l152 9l171 -564h-125zM206 204h127l-64 225z" />
    <glyph glyph-name="Aacute" unicode="&#xc1;" horiz-adv-x="538" 
d="M453 733l-198 -94l-38 78l179 120zM391 0l-26 91h-191l-26 -91h-125l170 555l152 9l171 -564h-125zM206 204h127l-64 225z" />
    <glyph glyph-name="Abreve" unicode="&#x102;" horiz-adv-x="538" 
d="M269 653c-61 0 -113 34 -142 83l66 57c14 -18 40 -45 76 -45c41 0 62 25 76 45l67 -57c-29 -50 -81 -83 -143 -83zM391 0l-26 91h-191l-26 -91h-125l170 555l152 9l171 -564h-125zM206 204h127l-64 225z" />
    <glyph glyph-name="uni01CD" unicode="&#x1cd;" horiz-adv-x="538" 
d="M406 759l-138 -116l-137 120l63 64l74 -65l77 64zM391 0l-26 91h-191l-26 -91h-125l170 555l152 9l171 -564h-125zM206 204h127l-64 225z" />
    <glyph glyph-name="Acircumflex" unicode="&#xc2;" horiz-adv-x="538" 
d="M268 710l-74 -65l-63 64l137 120l138 -116l-61 -67zM391 0l-26 91h-191l-26 -91h-125l170 555l152 9l171 -564h-125zM206 204h127l-64 225z" />
    <glyph glyph-name="Adieresis" unicode="&#xc4;" horiz-adv-x="538" 
d="M351 666c-34 0 -57 24 -57 59s23 58 57 58c36 0 60 -23 60 -58s-24 -59 -60 -59zM167 665c-34 0 -57 24 -57 59s23 58 57 58c36 0 60 -23 60 -58s-24 -59 -60 -59zM391 0l-26 91h-191l-26 -91h-125l170 555l152 9l171 -564h-125zM206 204h127l-64 225z" />
    <glyph glyph-name="Agrave" unicode="&#xc0;" horiz-adv-x="538" 
d="M316 716l-39 -77l-198 93l58 104zM391 0l-26 91h-191l-26 -91h-125l170 555l152 9l171 -564h-125zM206 204h127l-64 225z" />
    <glyph glyph-name="Amacron" unicode="&#x100;" horiz-adv-x="538" 
d="M395 761l-1 -96h-250v96h251zM391 0l-26 91h-191l-26 -91h-125l170 555l152 9l171 -564h-125zM206 204h127l-64 225z" />
    <glyph glyph-name="Aogonek" unicode="&#x104;" horiz-adv-x="538" 
d="M514 0c-54 -28 -88 -49 -105 -72c-28 -40 17 -81 56 -33l47 -52c-75 -89 -201 -36 -177 66c9 38 36 70 77 91h-21l-26 91h-191l-26 -91h-125l170 555l152 9l171 -563v-1h-2zM206 204h127l-64 225z" />
    <glyph glyph-name="Aring" unicode="&#xc5;" horiz-adv-x="538" 
d="M268 631c-60 0 -105 49 -105 106c0 58 45 105 105 105c58 0 106 -47 106 -105c0 -57 -48 -106 -106 -106zM266 770c-18 0 -32 -15 -32 -34c0 -20 14 -34 32 -34c19 0 34 14 34 34c0 19 -15 34 -34 34zM391 0l-26 91h-191l-26 -91h-125l170 555l152 9l171 -564h-125z
M206 204h127l-64 225z" />
    <glyph glyph-name="Atilde" unicode="&#xc3;" horiz-adv-x="538" 
d="M231 696c-16 0 -26 -21 -34 -41l-85 45c8 24 39 90 94 90c40 0 72 -31 97 -31c18 0 26 17 36 41l86 -43c-8 -23 -37 -93 -96 -93c-46 0 -73 32 -98 32zM391 0l-26 91h-191l-26 -91h-125l170 555l152 9l171 -564h-125zM206 204h127l-64 225z" />
    <glyph glyph-name="AE" unicode="&#xc6;" horiz-adv-x="712" 
d="M660 444h-235v-112h162v-117h-162v-98h235v-117h-363v90h-135l-42 -90h-133l275 561l123 -1l275 1v-117zM208 191h89v191z" />
    <glyph glyph-name="B" unicode="B" horiz-adv-x="523" 
d="M70 0v554c14 1 194 12 208 12c114 0 164 -75 164 -157c0 -51 -23 -87 -47 -105c53 -28 80 -82 80 -141c0 -118 -100 -163 -165 -163h-240zM194 335h66c35 0 56 26 56 59c0 27 -21 55 -56 55c-23 -1 -43 -1 -66 -2v-112zM194 118h87c34 0 63 22 63 60s-29 58 -58 58
l-92 -1v-117z" />
    <glyph glyph-name="C" unicode="C" horiz-adv-x="540" 
d="M285 -5c-126 0 -241 94 -241 277v16c0 183 115 277 241 277c89 0 172 -53 208 -146l-112 -45c-18 45 -57 68 -96 68c-57 0 -118 -40 -118 -154v-16c0 -114 61 -154 118 -154c41 0 83 26 98 76l113 -46c-35 -104 -119 -153 -211 -153z" />
    <glyph glyph-name="Cacute" unicode="&#x106;" horiz-adv-x="540" 
d="M271 639l-38 78l179 120l57 -104zM285 -5c-126 0 -241 94 -241 277v16c0 183 115 277 241 277c89 0 172 -53 208 -146l-112 -45c-18 45 -57 68 -96 68c-57 0 -118 -40 -118 -154v-16c0 -114 61 -154 118 -154c41 0 83 26 98 76l113 -46c-35 -104 -119 -153 -211 -153z
" />
    <glyph glyph-name="Ccaron" unicode="&#x10c;" horiz-adv-x="540" 
d="M422 759l-138 -116l-137 120l63 64l74 -65l77 64zM383 194l113 -46c-35 -104 -119 -153 -211 -153c-126 0 -241 94 -241 277v16c0 183 115 277 241 277c89 0 172 -53 208 -146l-112 -45c-18 45 -57 68 -96 68c-57 0 -118 -40 -118 -154v-16c0 -114 61 -154 118 -154
c41 0 83 26 98 76z" />
    <glyph glyph-name="Ccedilla" unicode="&#xc7;" horiz-adv-x="540" 
d="M496 148c-33 -98 -110 -147 -196 -153l-5 -28c56 13 103 -23 103 -76c0 -61 -48 -97 -109 -97c-46 0 -77 21 -92 36l38 55c7 -7 22 -18 48 -18c16 0 34 9 34 28c0 25 -26 32 -50 31c-16 -1 -27 -1 -40 -2v78c-101 25 -183 116 -183 270v16c0 183 115 277 241 277
c89 0 172 -53 208 -146l-112 -45c-18 45 -57 68 -96 68c-57 0 -118 -40 -118 -154v-16c0 -114 61 -154 118 -154c41 0 83 26 98 76z" />
    <glyph glyph-name="Cdotaccent" unicode="&#x10a;" horiz-adv-x="540" 
d="M285 631c-42 0 -71 28 -71 72c0 41 29 71 71 71s72 -30 72 -71c0 -44 -30 -72 -72 -72zM285 -5c-126 0 -241 94 -241 277v16c0 183 115 277 241 277c89 0 172 -53 208 -146l-112 -45c-18 45 -57 68 -96 68c-57 0 -118 -40 -118 -154v-16c0 -114 61 -154 118 -154
c41 0 83 26 98 76l113 -46c-35 -104 -119 -153 -211 -153z" />
    <glyph glyph-name="D" unicode="D" horiz-adv-x="537" 
d="M70 0v555c64 4 127 7 192 10c109 0 227 -92 227 -291c0 -211 -140 -274 -239 -274h-180zM194 124h54c76 0 115 60 115 146c0 95 -37 171 -112 171c-20 -1 -37 -1 -57 -3v-314z" />
    <glyph glyph-name="Eth" unicode="&#xd0;" horiz-adv-x="537" 
d="M115 665v96h251l-1 -96h-250zM70 0v555c64 4 127 7 192 10c109 0 227 -92 227 -291c0 -211 -140 -274 -239 -274h-180zM194 124h54c76 0 115 60 115 146c0 95 -37 171 -112 171c-20 -1 -37 -1 -57 -3v-314z" />
    <glyph glyph-name="Dcaron" unicode="&#x10e;" horiz-adv-x="537" 
d="M377 759l-138 -116l-137 120l63 64l74 -65l77 64zM262 565c109 0 227 -92 227 -291c0 -211 -140 -274 -239 -274h-180v555c64 4 127 7 192 10zM248 124c76 0 115 60 115 146c0 95 -37 171 -112 171c-20 -1 -37 -1 -57 -3v-314h54z" />
    <glyph glyph-name="Dcroat" unicode="&#x110;" horiz-adv-x="537" 
d="M115 665v96h251l-1 -96h-250zM70 0v555c64 4 127 7 192 10c109 0 227 -92 227 -291c0 -211 -140 -274 -239 -274h-180zM194 124h54c76 0 115 60 115 146c0 95 -37 171 -112 171c-20 -1 -37 -1 -57 -3v-314z" />
    <glyph glyph-name="E" unicode="E" horiz-adv-x="480" 
d="M428 444h-235v-112h162v-117h-162v-98h235v-117h-358v560l358 1v-117z" />
    <glyph glyph-name="Eacute" unicode="&#xc9;" horiz-adv-x="480" 
d="M429 735l-198 -94l-38 78l179 120zM70 0v560l358 1v-117h-235v-112h162v-117h-162v-98h235v-117h-358z" />
    <glyph glyph-name="Ecaron" unicode="&#x11a;" horiz-adv-x="480" 
d="M382 761l-138 -116l-137 120l63 64l74 -65l77 64zM428 444h-235v-112h162v-117h-162v-98h235v-117h-358v560l358 1v-117z" />
    <glyph glyph-name="Ecircumflex" unicode="&#xca;" horiz-adv-x="480" 
d="M244 712l-74 -65l-63 64l137 120l138 -116l-61 -67zM428 444h-235v-112h162v-117h-162v-98h235v-117h-358v560l358 1v-117z" />
    <glyph glyph-name="Edieresis" unicode="&#xcb;" horiz-adv-x="480" 
d="M327 668c-34 0 -57 24 -57 59s23 58 57 58c36 0 60 -23 60 -58s-24 -59 -60 -59zM143 667c-34 0 -57 24 -57 59s23 58 57 58c36 0 60 -23 60 -58s-24 -59 -60 -59zM428 444h-235v-112h162v-117h-162v-98h235v-117h-358v560l358 1v-117z" />
    <glyph glyph-name="Edotaccent" unicode="&#x116;" horiz-adv-x="480" 
d="M245 633c-42 0 -71 28 -71 72c0 41 29 71 71 71s72 -30 72 -71c0 -44 -30 -72 -72 -72zM428 444h-235v-112h162v-117h-162v-98h235v-117h-358v560l358 1v-117z" />
    <glyph glyph-name="Egrave" unicode="&#xc8;" horiz-adv-x="480" 
d="M292 718l-39 -77l-198 93l58 104zM428 444h-235v-112h162v-117h-162v-98h235v-117h-358v560l358 1v-117z" />
    <glyph glyph-name="Emacron" unicode="&#x112;" horiz-adv-x="480" 
d="M371 763l-1 -96h-250v96h251zM428 444h-235v-112h162v-117h-162v-98h235v-117h-358v560l358 1v-117z" />
    <glyph glyph-name="Eogonek" unicode="&#x118;" horiz-adv-x="480" 
d="M428 444h-235v-112h162v-117h-162v-98h235v-117h-4c-53 -27 -86 -49 -103 -71c-28 -40 17 -81 56 -33l47 -52c-75 -89 -201 -36 -177 66c9 37 35 69 75 90h-252v560l358 1v-117z" />
    <glyph glyph-name="F" unicode="F" horiz-adv-x="440" 
d="M430 443h-235v-130h162v-117h-162v-196h-125v560h360v-117z" />
    <glyph glyph-name="G" unicode="G" horiz-adv-x="567" 
d="M287 -5c-129 0 -243 94 -243 278v14c0 184 114 278 243 278c102 0 189 -66 219 -158l-120 -33c-15 39 -46 76 -99 76c-61 0 -120 -40 -120 -163v-14c0 -123 59 -163 120 -163c59 0 99 42 100 91v4h-109v109h241v-80c0 -145 -105 -239 -232 -239z" />
    <glyph glyph-name="Gbreve" unicode="&#x11e;" horiz-adv-x="567" 
d="M287 653c-61 0 -113 34 -142 83l66 57c14 -18 40 -45 76 -45c41 0 62 25 76 45l67 -57c-29 -50 -81 -83 -143 -83zM287 -5c-129 0 -243 94 -243 278v14c0 184 114 278 243 278c102 0 189 -66 219 -158l-120 -33c-15 39 -46 76 -99 76c-61 0 -120 -40 -120 -163v-14
c0 -123 59 -163 120 -163c59 0 99 42 100 91v4h-109v109h241v-80c0 -145 -105 -239 -232 -239z" />
    <glyph glyph-name="Gcommaaccent" unicode="&#x122;" horiz-adv-x="567" 
d="M287 -5c-129 0 -243 94 -243 278v14c0 184 114 278 243 278c102 0 189 -66 219 -158l-120 -33c-15 39 -46 76 -99 76c-61 0 -120 -40 -120 -163v-14c0 -123 59 -163 120 -163c59 0 99 42 100 91v4h-109v109h241v-80c0 -145 -105 -239 -232 -239zM310 -219l-117 12l36 171
l95 -7z" />
    <glyph glyph-name="Gdotaccent" unicode="&#x120;" horiz-adv-x="567" 
d="M287 631c-42 0 -71 28 -71 72c0 41 29 71 71 71s72 -30 72 -71c0 -44 -30 -72 -72 -72zM287 -5c-129 0 -243 94 -243 278v14c0 184 114 278 243 278c102 0 189 -66 219 -158l-120 -33c-15 39 -46 76 -99 76c-61 0 -120 -40 -120 -163v-14c0 -123 59 -163 120 -163
c59 0 99 42 100 91v4h-109v109h241v-80c0 -145 -105 -239 -232 -239z" />
    <glyph glyph-name="H" unicode="H" horiz-adv-x="540" 
d="M346 560h125v-560h-125v191h-151v-191h-125v556l125 6v-246h151v244z" />
    <glyph glyph-name="Hbar" unicode="&#x126;" horiz-adv-x="540" 
d="M543 485v-80h-72v-405h-125v191h-151v-191h-125v405h-73v80h73v71l125 6v-77h151v75h125v-75h72zM346 316v89h-151v-89h151z" />
    <glyph glyph-name="I" unicode="I" horiz-adv-x="272" 
d="M199 564v-564h-125v558z" />
    <glyph glyph-name="IJ" unicode="&#x132;" horiz-adv-x="641" 
d="M74 0v558l125 6v-564h-125zM347 558l230 6v-354c0 -148 -74 -215 -167 -215c-59 0 -103 26 -120 45l47 90c8 -4 28 -14 53 -13c44 1 62 34 62 91v235h-105v115z" />
    <glyph glyph-name="Iacute" unicode="&#xcd;" horiz-adv-x="272" 
d="M122 639l-38 78l179 120l57 -104zM199 564v-564h-125v558z" />
    <glyph glyph-name="uni01CF" unicode="&#x1cf;" horiz-adv-x="272" 
d="M273 759l-138 -116l-137 120l63 64l74 -65l77 64zM74 0v558l125 6v-564h-125z" />
    <glyph glyph-name="Icircumflex" unicode="&#xce;" horiz-adv-x="272" 
d="M135 829l138 -116l-61 -67l-77 64l-74 -65l-63 64zM74 0v558l125 6v-564h-125z" />
    <glyph glyph-name="Idieresis" unicode="&#xcf;" horiz-adv-x="272" 
d="M218 666c-34 0 -57 24 -57 59s23 58 57 58c36 0 60 -23 60 -58s-24 -59 -60 -59zM34 665c-34 0 -57 24 -57 59s23 58 57 58c36 0 60 -23 60 -58s-24 -59 -60 -59zM199 564v-564h-125v558z" />
    <glyph glyph-name="Idotaccent" unicode="&#x130;" horiz-adv-x="272" 
d="M136 631c-42 0 -71 28 -71 72c0 41 29 71 71 71s72 -30 72 -71c0 -44 -30 -72 -72 -72zM199 564v-564h-125v558z" />
    <glyph glyph-name="Igrave" unicode="&#xcc;" horiz-adv-x="272" 
d="M144 639l-198 93l58 104l179 -120zM199 564v-564h-125v558z" />
    <glyph glyph-name="Imacron" unicode="&#x12a;" horiz-adv-x="272" 
d="M11 665v96h251l-1 -96h-250zM199 564v-564h-125v558z" />
    <glyph glyph-name="Iogonek" unicode="&#x12e;" horiz-adv-x="272" 
d="M74 558l125 6v-564h-2c-54 -28 -88 -49 -105 -72c-28 -40 17 -81 56 -33l47 -52c-75 -89 -201 -36 -177 66c9 38 36 70 77 91h-21v558z" />
    <glyph glyph-name="J" unicode="J" horiz-adv-x="369" 
d="M75 558l230 6v-354c0 -148 -74 -215 -167 -215c-59 0 -103 26 -120 45l47 90c8 -4 28 -14 53 -13c44 1 62 34 62 91v235h-105v115z" />
    <glyph glyph-name="K" unicode="K" horiz-adv-x="532" 
d="M380 0l-117 233l-68 -93v-140h-125v558l125 7v-227l165 222h142l-162 -221l181 -339h-141z" />
    <glyph glyph-name="Kcommaaccent" unicode="&#x136;" horiz-adv-x="532" 
d="M340 339l181 -339h-141l-117 233l-68 -93v-140h-125v558l125 7v-227l165 222h142zM193 -203l36 171l95 -7l-14 -176z" />
    <glyph glyph-name="L" unicode="L" horiz-adv-x="407" 
d="M195 117h168v-117h-293v557l125 7v-447z" />
    <glyph glyph-name="Lacute" unicode="&#x139;" horiz-adv-x="407" 
d="M319 733l-198 -94l-38 78l179 120zM195 117h168v-117h-293v557l125 7v-447z" />
    <glyph glyph-name="Lcaron" unicode="&#x13d;" horiz-adv-x="407" 
d="M295 568l115 -6l-24 -207l-88 2zM195 564v-447h168v-117h-293v557z" />
    <glyph glyph-name="Lcommaaccent" unicode="&#x13b;" horiz-adv-x="407" 
d="M195 117h168v-117h-293v557l125 7v-447zM127 -205l36 171l95 -7l-14 -176z" />
    <glyph glyph-name="Ldot" unicode="&#x13f;" horiz-adv-x="403" 
d="M195 564v-447h168v-117h-293v557zM365 429c36 0 60 -23 60 -58s-24 -59 -60 -59c-34 0 -57 24 -57 59s23 58 57 58z" />
    <glyph glyph-name="Lslash" unicode="&#x141;" horiz-adv-x="407" 
d="M195 117h168v-117h-293v219l-60 -57l-56 57l116 110v228l125 7v-116l58 55l57 -57l-115 -109v-220z" />
    <glyph glyph-name="M" unicode="M" horiz-adv-x="694" 
d="M499 563l126 -7v-556h-125v326l-117 -217h-72l-116 215v-324h-125v555l125 8l152 -275z" />
    <glyph glyph-name="N" unicode="N" horiz-adv-x="577" 
d="M382 560h125v-560h-113l-199 329v-329h-125v556l113 7l199 -335v332z" />
    <glyph glyph-name="Nacute" unicode="&#x143;" horiz-adv-x="577" 
d="M474 709l-198 -94l-38 78l179 120zM382 560h125v-560h-113l-199 329v-329h-125v556l113 7l199 -335v332z" />
    <glyph glyph-name="Ncaron" unicode="&#x147;" horiz-adv-x="577" 
d="M427 735l-138 -116l-137 120l63 64l74 -65l77 64zM382 560h125v-560h-113l-199 329v-329h-125v556l113 7l199 -335v332z" />
    <glyph glyph-name="Ncommaaccent" unicode="&#x145;" horiz-adv-x="577" 
d="M382 560h125v-560h-113l-199 329v-329h-125v556l113 7l199 -335v332zM200 -207l36 171l95 -7l-14 -176z" />
    <glyph glyph-name="Eng" unicode="&#x14a;" horiz-adv-x="577" 
d="M382 560h125v-609c0 -110 -68 -165 -156 -165c-49 0 -72 14 -88 23l29 108c11 -3 16 -6 41 -5c29 0 49 23 49 70v38l-187 309v-329h-125v556l113 7l199 -335v332z" />
    <glyph glyph-name="Ntilde" unicode="&#xd1;" horiz-adv-x="577" 
d="M252 672c-16 0 -26 -21 -34 -41l-85 45c8 24 39 90 94 90c40 0 72 -31 97 -31c18 0 26 17 36 41l86 -43c-8 -23 -37 -93 -96 -93c-46 0 -73 32 -98 32zM382 560h125v-560h-113l-199 329v-329h-125v556l113 7l199 -335v332z" />
    <glyph glyph-name="O" unicode="O" horiz-adv-x="573" 
d="M286 -5c-127 0 -238 94 -238 277v16c0 183 111 277 238 277s239 -94 239 -277v-16c0 -183 -112 -277 -239 -277zM286 110c59 0 116 40 116 162v16c0 122 -57 162 -116 162s-115 -40 -115 -162v-16c0 -122 56 -162 115 -162z" />
    <glyph glyph-name="Oacute" unicode="&#xd3;" horiz-adv-x="573" 
d="M273 639l-38 78l179 120l57 -104zM286 -5c-127 0 -238 94 -238 277v16c0 183 111 277 238 277s239 -94 239 -277v-16c0 -183 -112 -277 -239 -277zM286 110c59 0 116 40 116 162v16c0 122 -57 162 -116 162s-115 -40 -115 -162v-16c0 -122 56 -162 115 -162z" />
    <glyph glyph-name="uni01D1" unicode="&#x1d1;" horiz-adv-x="573" 
d="M424 759l-138 -116l-137 120l63 64l74 -65l77 64zM286 565c127 0 239 -94 239 -277v-16c0 -183 -112 -277 -239 -277s-238 94 -238 277v16c0 183 111 277 238 277zM402 272v16c0 122 -57 162 -116 162s-115 -40 -115 -162v-16c0 -122 56 -162 115 -162s116 40 116 162z
" />
    <glyph glyph-name="Ocircumflex" unicode="&#xd4;" horiz-adv-x="573" 
d="M286 710l-74 -65l-63 64l137 120l138 -116l-61 -67zM286 565c127 0 239 -94 239 -277v-16c0 -183 -112 -277 -239 -277s-238 94 -238 277v16c0 183 111 277 238 277zM402 272v16c0 122 -57 162 -116 162s-115 -40 -115 -162v-16c0 -122 56 -162 115 -162s116 40 116 162z
" />
    <glyph glyph-name="Odieresis" unicode="&#xd6;" horiz-adv-x="573" 
d="M369 666c-34 0 -57 24 -57 59s23 58 57 58c36 0 60 -23 60 -58s-24 -59 -60 -59zM185 665c-34 0 -57 24 -57 59s23 58 57 58c36 0 60 -23 60 -58s-24 -59 -60 -59zM286 -5c-127 0 -238 94 -238 277v16c0 183 111 277 238 277s239 -94 239 -277v-16
c0 -183 -112 -277 -239 -277zM286 110c59 0 116 40 116 162v16c0 122 -57 162 -116 162s-115 -40 -115 -162v-16c0 -122 56 -162 115 -162z" />
    <glyph glyph-name="Ograve" unicode="&#xd2;" horiz-adv-x="573" 
d="M295 639l-198 93l58 104l179 -120zM286 -5c-127 0 -238 94 -238 277v16c0 183 111 277 238 277s239 -94 239 -277v-16c0 -183 -112 -277 -239 -277zM286 110c59 0 116 40 116 162v16c0 122 -57 162 -116 162s-115 -40 -115 -162v-16c0 -122 56 -162 115 -162z" />
    <glyph glyph-name="Ohungarumlaut" unicode="&#x150;" horiz-adv-x="573" 
d="M245 635l-97 -1l-2 214l115 -6zM403 632l-96 2l8 210l115 -6zM286 -5c-127 0 -238 94 -238 277v16c0 183 111 277 238 277s239 -94 239 -277v-16c0 -183 -112 -277 -239 -277zM286 110c59 0 116 40 116 162v16c0 122 -57 162 -116 162s-115 -40 -115 -162v-16
c0 -122 56 -162 115 -162z" />
    <glyph glyph-name="Omacron" unicode="&#x14c;" horiz-adv-x="573" 
d="M162 665v96h251l-1 -96h-250zM286 -5c-127 0 -238 94 -238 277v16c0 183 111 277 238 277s239 -94 239 -277v-16c0 -183 -112 -277 -239 -277zM286 110c59 0 116 40 116 162v16c0 122 -57 162 -116 162s-115 -40 -115 -162v-16c0 -122 56 -162 115 -162z" />
    <glyph glyph-name="Oslash" unicode="&#xd8;" horiz-adv-x="573" 
d="M558 504l-65 -67c20 -40 32 -90 32 -149v-16c0 -183 -112 -277 -239 -277c-60 0 -117 21 -160 63l-56 -58l-63 64l67 70c-16 38 -26 84 -26 138v16c0 183 111 277 238 277c56 0 110 -19 152 -55l56 58zM171 272c0 -13 1 -25 2 -36l183 189c-20 18 -45 25 -70 25
c-59 0 -115 -40 -115 -162v-16zM402 288c0 19 -1 36 -4 51l-190 -196c22 -24 49 -33 78 -33c59 0 116 40 116 162v16z" />
    <glyph glyph-name="Otilde" unicode="&#xd5;" horiz-adv-x="573" 
d="M215 655l-85 45c8 24 39 90 94 90c40 0 72 -31 97 -31c18 0 26 17 36 41l86 -43c-8 -23 -37 -93 -96 -93c-46 0 -73 32 -98 32c-16 0 -26 -21 -34 -41zM286 -5c-127 0 -238 94 -238 277v16c0 183 111 277 238 277s239 -94 239 -277v-16c0 -183 -112 -277 -239 -277z
M286 110c59 0 116 40 116 162v16c0 122 -57 162 -116 162s-115 -40 -115 -162v-16c0 -122 56 -162 115 -162z" />
    <glyph glyph-name="OE" unicode="&#x152;" horiz-adv-x="874" 
d="M822 444h-235v-112h162v-117h-162v-98h235v-117h-358v94c-41 -66 -107 -99 -178 -99c-127 0 -238 94 -238 277v16c0 183 111 277 238 277c71 0 137 -33 178 -99v94l358 1v-117zM402 272v16c0 122 -57 162 -116 162s-115 -40 -115 -162v-16c0 -122 56 -162 115 -162
s116 40 116 162z" />
    <glyph glyph-name="P" unicode="P" horiz-adv-x="477" 
d="M256 565c94 0 195 -67 195 -205c0 -115 -77 -198 -184 -200h-73v-160h-124v555c63 4 123 7 186 10zM194 272h55c37 0 77 30 77 81c0 54 -26 88 -79 88c-19 0 -34 -1 -53 -2v-167z" />
    <glyph glyph-name="Thorn" unicode="&#xde;" horiz-adv-x="495" 
d="M283 510c103 23 176 -90 176 -227c0 -145 -91 -240 -190 -215c-27 7 -51 25 -70 49v-117h-125v558l125 6v-125c20 32 48 62 84 71zM251 168c46 -1 77 41 77 115c0 70 -26 127 -76 121c-18 -2 -36 -17 -53 -38v-168c16 -17 34 -29 52 -30z" />
    <glyph glyph-name="Q" unicode="Q" horiz-adv-x="568" 
d="M505 110l35 -110h-263c-127 0 -234 102 -234 269v27c0 167 107 269 234 269s234 -102 234 -269v-17c0 -76 -33 -132 -75 -169h69zM166 269c0 -98 52 -146 111 -146s110 48 110 146v27c0 98 -51 146 -110 146s-111 -48 -111 -146v-27z" />
    <glyph glyph-name="R" unicode="R" horiz-adv-x="505" 
d="M473 0h-143l-89 160h-47v-160h-124v555c63 4 123 7 186 10c93 0 195 -67 195 -204c0 -76 -32 -137 -84 -171zM194 438v-166h55c37 0 77 29 77 82s-26 87 -79 87c-19 -1 -34 -1 -53 -3z" />
    <glyph glyph-name="Racute" unicode="&#x154;" horiz-adv-x="505" 
d="M421 733l-198 -94l-38 78l179 120zM473 0h-143l-89 160h-47v-160h-124v555c63 4 123 7 186 10c93 0 195 -67 195 -204c0 -76 -32 -137 -84 -171zM194 438v-166h55c37 0 77 29 77 82s-26 87 -79 87c-19 -1 -34 -1 -53 -3z" />
    <glyph glyph-name="Rcaron" unicode="&#x158;" horiz-adv-x="505" 
d="M374 759l-138 -116l-137 120l63 64l74 -65l77 64zM473 0h-143l-89 160h-47v-160h-124v555c63 4 123 7 186 10c93 0 195 -67 195 -204c0 -76 -32 -137 -84 -171zM194 438v-166h55c37 0 77 29 77 82s-26 87 -79 87c-19 -1 -34 -1 -53 -3z" />
    <glyph glyph-name="Rcommaaccent" unicode="&#x156;" horiz-adv-x="505" 
d="M367 190l106 -190h-143l-89 160h-47v-160h-124v555c63 4 123 7 186 10c93 0 195 -67 195 -204c0 -76 -32 -137 -84 -171zM194 438v-166h55c37 0 77 29 77 82s-26 87 -79 87c-19 -1 -34 -1 -53 -3zM165 -207l36 171l95 -7l-14 -176z" />
    <glyph glyph-name="S" unicode="S" horiz-adv-x="460" 
d="M234 -5c-94 0 -172 61 -189 154l121 33c6 -36 33 -60 64 -60s55 18 54 50c-3 80 -238 60 -238 230c0 91 80 163 181 163c97 0 178 -66 189 -148l-113 -30c-12 38 -41 55 -68 55c-33 0 -54 -22 -50 -47c11 -70 232 -45 232 -229c0 -99 -76 -171 -183 -171z" />
    <glyph glyph-name="Sacute" unicode="&#x15a;" horiz-adv-x="460" 
d="M217 639l-38 78l179 120l57 -104zM234 -5c-94 0 -172 61 -189 154l121 33c6 -36 33 -60 64 -60s55 18 54 50c-3 80 -238 60 -238 230c0 91 80 163 181 163c97 0 178 -66 189 -148l-113 -30c-12 38 -41 55 -68 55c-33 0 -54 -22 -50 -47c11 -70 232 -45 232 -229
c0 -99 -76 -171 -183 -171z" />
    <glyph glyph-name="Scaron" unicode="&#x160;" horiz-adv-x="460" 
d="M368 759l-138 -116l-137 120l63 64l74 -65l77 64zM185 395c11 -70 232 -45 232 -229c0 -99 -76 -171 -183 -171c-94 0 -172 61 -189 154l121 33c6 -36 33 -60 64 -60s55 18 54 50c-3 80 -238 60 -238 230c0 91 80 163 181 163c97 0 178 -66 189 -148l-113 -30
c-12 38 -41 55 -68 55c-33 0 -54 -22 -50 -47z" />
    <glyph glyph-name="Scedilla" unicode="&#x15e;" horiz-adv-x="460" 
d="M417 166c0 -87 -58 -153 -145 -168l-7 -38c56 13 103 -23 103 -76c0 -61 -48 -97 -109 -97c-46 0 -77 21 -92 36l38 55c7 -7 22 -18 48 -18c16 0 34 9 34 28c0 25 -26 32 -50 31c-16 -1 -27 -1 -40 -2v81c-77 14 -137 71 -152 151l121 33c6 -36 33 -60 64 -60
s55 18 54 50c-3 80 -238 60 -238 230c0 91 80 163 181 163c97 0 178 -66 189 -148l-113 -30c-12 38 -41 55 -68 55c-33 0 -54 -22 -50 -47c11 -70 232 -45 232 -229z" />
    <glyph glyph-name="Scommaaccent" unicode="&#x218;" horiz-adv-x="460" 
d="M234 -5c-94 0 -172 61 -189 154l121 33c6 -36 33 -60 64 -60s55 18 54 50c-3 80 -238 60 -238 230c0 91 80 163 181 163c97 0 178 -66 189 -148l-113 -30c-12 38 -41 55 -68 55c-33 0 -54 -22 -50 -47c11 -70 232 -45 232 -229c0 -99 -76 -171 -183 -171zM268 -218
l-117 12l36 171l95 -7z" />
    <glyph glyph-name="T" unicode="T" horiz-adv-x="403" 
d="M390 560v-121h-127v-439h-125v439h-125v121h377z" />
    <glyph glyph-name="Tbar" unicode="&#x166;" horiz-adv-x="403" 
d="M328 761l-1 -96h-250v96h251zM390 560v-121h-127v-439h-125v439h-125v121h377z" />
    <glyph glyph-name="Tcaron" unicode="&#x164;" horiz-adv-x="403" 
d="M339 759l-138 -116l-137 120l63 64l74 -65l77 64zM390 560v-121h-127v-439h-125v439h-125v121h377z" />
    <glyph glyph-name="uni0162" unicode="&#x162;" horiz-adv-x="403" 
d="M263 0h-21l-8 -41c56 13 103 -23 103 -76c0 -61 -48 -97 -109 -97c-46 0 -77 21 -92 36l38 55c7 -7 22 -18 48 -18c16 0 34 9 34 28c0 25 -26 32 -50 31c-16 -1 -27 -1 -40 -2v84h-28v439h-125v121h377v-121h-127v-439z" />
    <glyph glyph-name="uni021A" unicode="&#x21a;" horiz-adv-x="403" 
d="M390 560v-121h-127v-439h-125v439h-125v121h377zM120 -207l36 171l95 -7l-14 -176z" />
    <glyph glyph-name="U" unicode="U" horiz-adv-x="546" 
d="M274 -3c-120 0 -215 79 -216 225l-1 332l124 7l1 -329c-1 -74 40 -112 92 -112c56 0 92 40 92 112l-2 328h124l2 -338c0 -146 -95 -225 -216 -225z" />
    <glyph glyph-name="Uacute" unicode="&#xda;" horiz-adv-x="546" 
d="M259 635l-38 78l179 120l57 -104zM274 -3c-120 0 -215 79 -216 225l-1 332l124 7l1 -329c-1 -74 40 -112 92 -112c56 0 92 40 92 112l-2 328h124l2 -338c0 -146 -95 -225 -216 -225z" />
    <glyph glyph-name="uni01D3" unicode="&#x1d3;" horiz-adv-x="546" 
d="M410 755l-138 -116l-137 120l63 64l74 -65l77 64zM488 560l2 -338c0 -146 -95 -225 -216 -225c-120 0 -215 79 -216 225l-1 332l124 7l1 -329c-1 -74 40 -112 92 -112c56 0 92 40 92 112l-2 328h124z" />
    <glyph glyph-name="Ucircumflex" unicode="&#xdb;" horiz-adv-x="546" 
d="M272 706l-74 -65l-63 64l137 120l138 -116l-61 -67zM488 560l2 -338c0 -146 -95 -225 -216 -225c-120 0 -215 79 -216 225l-1 332l124 7l1 -329c-1 -74 40 -112 92 -112c56 0 92 40 92 112l-2 328h124z" />
    <glyph glyph-name="Udieresis" unicode="&#xdc;" horiz-adv-x="546" 
d="M355 662c-34 0 -57 24 -57 59s23 58 57 58c36 0 60 -23 60 -58s-24 -59 -60 -59zM171 661c-34 0 -57 24 -57 59s23 58 57 58c36 0 60 -23 60 -58s-24 -59 -60 -59zM274 -3c-120 0 -215 79 -216 225l-1 332l124 7l1 -329c-1 -74 40 -112 92 -112c56 0 92 40 92 112l-2 328
h124l2 -338c0 -146 -95 -225 -216 -225z" />
    <glyph glyph-name="Ugrave" unicode="&#xd9;" horiz-adv-x="546" 
d="M281 635l-198 93l58 104l179 -120zM274 -3c-120 0 -215 79 -216 225l-1 332l124 7l1 -329c-1 -74 40 -112 92 -112c56 0 92 40 92 112l-2 328h124l2 -338c0 -146 -95 -225 -216 -225z" />
    <glyph glyph-name="Uhungarumlaut" unicode="&#x170;" horiz-adv-x="546" 
d="M231 631l-97 -1l-2 214l115 -6zM389 628l-96 2l8 210l115 -6zM274 -3c-120 0 -215 79 -216 225l-1 332l124 7l1 -329c-1 -74 40 -112 92 -112c56 0 92 40 92 112l-2 328h124l2 -338c0 -146 -95 -225 -216 -225z" />
    <glyph glyph-name="Umacron" unicode="&#x16a;" horiz-adv-x="546" 
d="M148 661v96h251l-1 -96h-250zM274 -3c-120 0 -215 79 -216 225l-1 332l124 7l1 -329c-1 -74 40 -112 92 -112c56 0 92 40 92 112l-2 328h124l2 -338c0 -146 -95 -225 -216 -225z" />
    <glyph glyph-name="Uogonek" unicode="&#x172;" horiz-adv-x="546" 
d="M341 6c-52 -27 -85 -48 -101 -70c-28 -40 17 -81 56 -33l47 -52c-75 -89 -201 -36 -177 66c8 34 30 63 64 84c-98 17 -171 93 -172 221l-1 332l124 7l1 -329c-1 -74 40 -112 92 -112c56 0 92 40 92 112l-2 328h124l2 -338c0 -118 -62 -192 -149 -216z" />
    <glyph glyph-name="Uring" unicode="&#x16e;" horiz-adv-x="546" 
d="M272 627c-60 0 -105 49 -105 106c0 58 45 105 105 105c58 0 106 -47 106 -105c0 -57 -48 -106 -106 -106zM270 698c19 0 34 14 34 34c0 19 -15 34 -34 34c-18 0 -32 -15 -32 -34c0 -20 14 -34 32 -34zM274 -3c-120 0 -215 79 -216 225l-1 332l124 7l1 -329
c-1 -74 40 -112 92 -112c56 0 92 40 92 112l-2 328h124l2 -338c0 -146 -95 -225 -216 -225z" />
    <glyph glyph-name="V" unicode="V" horiz-adv-x="515" 
d="M376 565l129 -7l-185 -558h-125l-185 558l129 7l119 -394z" />
    <glyph glyph-name="W" unicode="W" horiz-adv-x="698" 
d="M554 564l125 -7l-123 -557h-109l-98 311l-98 -311h-109l-123 557l125 7l68 -342l94 326h85l94 -327z" />
    <glyph glyph-name="Wacute" unicode="&#x1e82;" horiz-adv-x="698" 
d="M533 733l-198 -94l-38 78l179 120zM554 564l125 -7l-123 -557h-109l-98 311l-98 -311h-109l-123 557l125 7l68 -342l94 326h85l94 -327z" />
    <glyph glyph-name="Wcircumflex" unicode="&#x174;" horiz-adv-x="698" 
d="M348 710l-74 -65l-63 64l137 120l138 -116l-61 -67zM554 564l125 -7l-123 -557h-109l-98 311l-98 -311h-109l-123 557l125 7l68 -342l94 326h85l94 -327z" />
    <glyph glyph-name="Wdieresis" unicode="&#x1e84;" horiz-adv-x="698" 
d="M431 666c-34 0 -57 24 -57 59s23 58 57 58c36 0 60 -23 60 -58s-24 -59 -60 -59zM247 665c-34 0 -57 24 -57 59s23 58 57 58c36 0 60 -23 60 -58s-24 -59 -60 -59zM554 564l125 -7l-123 -557h-109l-98 311l-98 -311h-109l-123 557l125 7l68 -342l94 326h85l94 -327z" />
    <glyph glyph-name="Wgrave" unicode="&#x1e80;" horiz-adv-x="698" 
d="M396 716l-39 -77l-198 93l58 104zM554 564l125 -7l-123 -557h-109l-98 311l-98 -311h-109l-123 557l125 7l68 -342l94 326h85l94 -327z" />
    <glyph glyph-name="X" unicode="X" horiz-adv-x="564" 
d="M545 0h-135l-128 195l-128 -195h-135l192 286l-184 274h136l119 -182l120 183h136l-184 -275z" />
    <glyph glyph-name="Y" unicode="Y" horiz-adv-x="477" 
d="M472 557l-171 -333v-224h-125v224l-170 333l129 8l103 -226h1l104 226z" />
    <glyph glyph-name="Yacute" unicode="&#xdd;" horiz-adv-x="477" 
d="M423 721l-198 -94l-38 78l179 120zM472 557l-171 -333v-224h-125v224l-170 333l129 8l103 -226h1l104 226z" />
    <glyph glyph-name="Ycircumflex" unicode="&#x176;" horiz-adv-x="477" 
d="M238 698l-74 -65l-63 64l137 120l138 -116l-61 -67zM472 557l-171 -333v-224h-125v224l-170 333l129 8l103 -226h1l104 226z" />
    <glyph glyph-name="Ydieresis" unicode="&#x178;" horiz-adv-x="477" 
d="M321 654c-34 0 -57 24 -57 59s23 58 57 58c36 0 60 -23 60 -58s-24 -59 -60 -59zM137 653c-34 0 -57 24 -57 59s23 58 57 58c36 0 60 -23 60 -58s-24 -59 -60 -59zM472 557l-171 -333v-224h-125v224l-170 333l129 8l103 -226h1l104 226z" />
    <glyph glyph-name="Ygrave" unicode="&#x1ef2;" horiz-adv-x="477" 
d="M286 704l-39 -77l-198 93l58 104zM472 557l-171 -333v-224h-125v224l-170 333l129 8l103 -226h1l104 226z" />
    <glyph glyph-name="Z" unicode="Z" horiz-adv-x="481" 
d="M434 560v-123l-238 -321h238v-116h-386v121l239 322h-238v117h385z" />
    <glyph glyph-name="Zacute" unicode="&#x179;" horiz-adv-x="481" 
d="M425 733l-198 -94l-38 78l179 120zM434 560v-123l-238 -321h238v-116h-386v121l239 322h-238v117h385z" />
    <glyph glyph-name="Zcaron" unicode="&#x17d;" horiz-adv-x="481" 
d="M378 759l-138 -116l-137 120l63 64l74 -65l77 64zM434 560v-123l-238 -321h238v-116h-386v121l239 322h-238v117h385z" />
    <glyph glyph-name="Zdotaccent" unicode="&#x17b;" horiz-adv-x="481" 
d="M241 631c-42 0 -71 28 -71 72c0 41 29 71 71 71s72 -30 72 -71c0 -44 -30 -72 -72 -72zM434 560v-123l-238 -321h238v-116h-386v121l239 322h-238v117h385z" />
    <glyph glyph-name="B.ss01" horiz-adv-x="521" 
d="M72 0v559c53 3 146 6 185 6c133 1 187 -74 187 -156c0 -51 -23 -87 -47 -105c53 -28 80 -82 80 -141c0 -118 -100 -163 -165 -163h-240zM196 335h66c35 0 56 26 56 59c0 27 -21 57 -60 57c-22 -1 -45 -1 -62 -3v-113zM196 118h87c34 0 63 22 63 60s-29 58 -58 58l-92 -1
v-117z" />
    <glyph glyph-name="D.ss01" horiz-adv-x="539" 
d="M72 0v559c63 4 132 5 181 6c117 4 238 -92 238 -291c0 -211 -140 -274 -239 -274h-180zM196 124h54c76 0 115 64 115 150c0 95 -38 169 -116 168c-19 0 -35 -1 -53 -3v-315z" />
    <glyph glyph-name="P.ss01" horiz-adv-x="480" 
d="M249 566c107 0 204 -69 204 -206c0 -115 -77 -198 -184 -200h-73v-160h-124v559c63 4 133 7 177 7zM196 272h55c37 0 77 30 77 81c0 53 -27 89 -79 89c-18 0 -34 -1 -53 -2v-168z" />
    <glyph glyph-name="R.ss01" horiz-adv-x="504" 
d="M475 0h-143l-91 160h-45v-160h-124v559c63 4 133 7 177 7c103 0 204 -69 204 -206c0 -75 -33 -137 -85 -171zM196 440v-168h55c37 0 77 30 77 81c0 53 -26 89 -78 89c-19 0 -35 -1 -54 -2z" />
    <glyph glyph-name="a" unicode="a" horiz-adv-x="500" 
d="M424 202c0 -55 8 -82 49 -82v-113c-82 -19 -144 3 -166 79c-20 -40 -51 -79 -98 -86c-102 -16 -177 80 -177 213c0 131 80 249 184 229c41 -8 68 -42 85 -78v31l3 51l121 -7zM237 106c23 1 43 15 62 38v10l1 139c-19 23 -39 39 -62 42c-46 4 -77 -49 -77 -124
c0 -63 27 -107 76 -105z" />
    <glyph glyph-name="aacute" unicode="&#xe1;" horiz-adv-x="500" 
d="M441 605l-198 -94l-38 78l179 120zM424 202c0 -55 8 -82 49 -82v-113c-82 -19 -144 3 -166 79c-20 -40 -51 -79 -98 -86c-102 -16 -177 80 -177 213c0 131 80 249 184 229c41 -8 68 -42 85 -78v31l3 51l121 -7zM237 106c23 1 43 15 62 38v10l1 139c-19 23 -39 39 -62 42
c-46 4 -77 -49 -77 -124c0 -63 27 -107 76 -105z" />
    <glyph glyph-name="abreve" unicode="&#x103;" horiz-adv-x="500" 
d="M257 525c-61 0 -113 34 -142 83l66 57c14 -18 40 -45 76 -45c41 0 62 25 76 45l67 -57c-29 -50 -81 -83 -143 -83zM424 202c0 -55 8 -82 49 -82v-113c-82 -19 -144 3 -166 79c-20 -40 -51 -79 -98 -86c-102 -16 -177 80 -177 213c0 131 80 249 184 229
c41 -8 68 -42 85 -78v31l3 51l121 -7zM237 106c23 1 43 15 62 38v10l1 139c-19 23 -39 39 -62 42c-46 4 -77 -49 -77 -124c0 -63 27 -107 76 -105z" />
    <glyph glyph-name="uni01CE" unicode="&#x1ce;" horiz-adv-x="500" 
d="M394 631l-138 -116l-137 120l63 64l74 -65l77 64zM424 202c0 -55 8 -82 49 -82v-113c-82 -19 -144 3 -166 79c-20 -40 -51 -79 -98 -86c-102 -16 -177 80 -177 213c0 131 80 249 184 229c41 -8 68 -42 85 -78v31l3 51l121 -7zM237 106c23 1 43 15 62 38v10l1 139
c-19 23 -39 39 -62 42c-46 4 -77 -49 -77 -124c0 -63 27 -107 76 -105z" />
    <glyph glyph-name="acircumflex" unicode="&#xe2;" horiz-adv-x="500" 
d="M256 582l-74 -65l-63 64l137 120l138 -116l-61 -67zM424 202c0 -55 8 -82 49 -82v-113c-82 -19 -144 3 -166 79c-20 -40 -51 -79 -98 -86c-102 -16 -177 80 -177 213c0 131 80 249 184 229c41 -8 68 -42 85 -78v31l3 51l121 -7zM237 106c23 1 43 15 62 38v10l1 139
c-19 23 -39 39 -62 42c-46 4 -77 -49 -77 -124c0 -63 27 -107 76 -105z" />
    <glyph glyph-name="adieresis" unicode="&#xe4;" horiz-adv-x="500" 
d="M339 538c-34 0 -57 24 -57 59s23 58 57 58c36 0 60 -23 60 -58s-24 -59 -60 -59zM155 537c-34 0 -57 24 -57 59s23 58 57 58c36 0 60 -23 60 -58s-24 -59 -60 -59zM424 202c0 -55 8 -82 49 -82v-113c-82 -19 -144 3 -166 79c-20 -40 -51 -79 -98 -86
c-102 -16 -177 80 -177 213c0 131 80 249 184 229c41 -8 68 -42 85 -78v31l3 51l121 -7zM237 106c23 1 43 15 62 38v10l1 139c-19 23 -39 39 -62 42c-46 4 -77 -49 -77 -124c0 -63 27 -107 76 -105z" />
    <glyph glyph-name="agrave" unicode="&#xe0;" horiz-adv-x="500" 
d="M304 588l-39 -77l-198 93l58 104zM424 202c0 -55 8 -82 49 -82v-113c-82 -19 -144 3 -166 79c-20 -40 -51 -79 -98 -86c-102 -16 -177 80 -177 213c0 131 80 249 184 229c41 -8 68 -42 85 -78v31l3 51l121 -7zM237 106c23 1 43 15 62 38v10l1 139c-19 23 -39 39 -62 42
c-46 4 -77 -49 -77 -124c0 -63 27 -107 76 -105z" />
    <glyph glyph-name="amacron" unicode="&#x101;" horiz-adv-x="500" 
d="M383 633l-1 -96h-250v96h251zM424 202c0 -55 8 -82 49 -82v-113c-82 -19 -144 3 -166 79c-20 -40 -51 -79 -98 -86c-102 -16 -177 80 -177 213c0 131 80 249 184 229c41 -8 68 -42 85 -78v31l3 51l121 -7zM237 106c23 1 43 15 62 38v10l1 139c-19 23 -39 39 -62 42
c-46 4 -77 -49 -77 -124c0 -63 27 -107 76 -105z" />
    <glyph glyph-name="aogonek" unicode="&#x105;" horiz-adv-x="500" 
d="M468 6c-52 -27 -85 -48 -101 -70c-28 -40 17 -81 56 -33l47 -52c-75 -89 -201 -36 -177 66c9 39 37 71 79 92c-31 12 -54 37 -65 77c-20 -40 -51 -79 -98 -86c-102 -16 -177 80 -177 213c0 131 80 249 184 229c41 -8 68 -42 85 -78v31l3 51l121 -7l-1 -237
c0 -55 8 -82 49 -82v-111h1s-1 0 -1 -1v-1c-2 0 -3 -1 -5 -1zM237 106c23 1 43 15 62 38v10l1 139c-19 23 -39 39 -62 42c-46 4 -77 -49 -77 -124c0 -63 27 -107 76 -105z" />
    <glyph glyph-name="aring" unicode="&#xe5;" horiz-adv-x="500" 
d="M256 503c-60 0 -105 49 -105 106c0 58 45 105 105 105c58 0 106 -47 106 -105c0 -57 -48 -106 -106 -106zM254 642c-18 0 -32 -15 -32 -34c0 -20 14 -34 32 -34c19 0 34 14 34 34c0 19 -15 34 -34 34zM424 202c0 -55 8 -82 49 -82v-113c-82 -19 -144 3 -166 79
c-20 -40 -51 -79 -98 -86c-102 -16 -177 80 -177 213c0 131 80 249 184 229c41 -8 68 -42 85 -78v31l3 51l121 -7zM237 106c23 1 43 15 62 38v10l1 139c-19 23 -39 39 -62 42c-46 4 -77 -49 -77 -124c0 -63 27 -107 76 -105z" />
    <glyph glyph-name="atilde" unicode="&#xe3;" horiz-adv-x="500" 
d="M219 568c-16 0 -26 -21 -34 -41l-85 45c8 24 39 90 94 90c40 0 72 -31 97 -31c18 0 26 17 36 41l86 -43c-8 -23 -37 -93 -96 -93c-46 0 -73 32 -98 32zM424 202c0 -55 8 -82 49 -82v-113c-82 -19 -144 3 -166 79c-20 -40 -51 -79 -98 -86c-102 -16 -177 80 -177 213
c0 131 80 249 184 229c41 -8 68 -42 85 -78v31l3 51l121 -7zM237 106c23 1 43 15 62 38v10l1 139c-19 23 -39 39 -62 42c-46 4 -77 -49 -77 -124c0 -63 27 -107 76 -105z" />
    <glyph glyph-name="ae" unicode="&#xe6;" horiz-adv-x="832" 
d="M793 188h-276v-6c3 -51 38 -81 76 -81c36 0 63 20 75 52l113 -33c-28 -71 -95 -125 -186 -125c-80 0 -140 45 -172 108v-103h-117v82c-20 -39 -51 -75 -96 -82c-102 -16 -177 80 -177 213c0 131 80 249 184 229c45 -9 72 -48 89 -87v92l117 -9v-101c32 63 92 108 172 108
c124 0 200 -103 200 -213c0 -31 -1 -35 -2 -44zM593 339c-38 0 -73 -30 -74 -76h150c0 49 -38 76 -76 76zM238 106c26 1 47 18 68 45v136c-20 26 -43 45 -67 48c-46 4 -77 -49 -77 -124c0 -63 27 -107 76 -105z" />
    <glyph glyph-name="b" unicode="b" horiz-adv-x="483" 
d="M275 445c103 23 176 -90 176 -227c0 -145 -91 -240 -190 -215c-33 8 -60 32 -80 63v-4l-6 -62h-117v595l125 7l-1 -244c21 39 52 77 93 87zM243 103c46 -1 77 41 77 115c0 70 -26 127 -76 121c-21 -2 -43 -23 -62 -50l-1 -146c19 -21 40 -39 62 -40z" />
    <glyph glyph-name="c" unicode="c" horiz-adv-x="438" 
d="M232 -5c-125 0 -199 102 -199 221v8c0 119 74 221 199 221c73 0 141 -42 174 -109l-102 -63c-10 32 -36 57 -72 57c-53 0 -80 -48 -80 -106v-8c0 -58 27 -106 80 -106c35 0 62 24 71 55l101 -65c-36 -68 -105 -105 -172 -105z" />
    <glyph glyph-name="cacute" unicode="&#x107;" horiz-adv-x="438" 
d="M213 505l-38 78l179 120l57 -104zM232 -5c-125 0 -199 102 -199 221v8c0 119 74 221 199 221c73 0 141 -42 174 -109l-102 -63c-10 32 -36 57 -72 57c-53 0 -80 -48 -80 -106v-8c0 -58 27 -106 80 -106c35 0 62 24 71 55l101 -65c-36 -68 -105 -105 -172 -105z" />
    <glyph glyph-name="ccaron" unicode="&#x10d;" horiz-adv-x="438" 
d="M364 625l-138 -116l-137 120l63 64l74 -65l77 64zM232 110c35 0 62 24 71 55l101 -65c-36 -68 -105 -105 -172 -105c-125 0 -199 102 -199 221v8c0 119 74 221 199 221c73 0 141 -42 174 -109l-102 -63c-10 32 -36 57 -72 57c-53 0 -80 -48 -80 -106v-8
c0 -58 27 -106 80 -106z" />
    <glyph glyph-name="ccedilla" unicode="&#xe7;" horiz-adv-x="438" 
d="M232 110c35 0 62 24 71 55l101 -65c-31 -58 -85 -93 -142 -103l-7 -36c56 13 103 -23 103 -76c0 -61 -48 -97 -109 -97c-46 0 -77 21 -92 36l38 55c7 -7 22 -18 48 -18c16 0 34 9 34 28c0 25 -26 32 -50 31c-16 -1 -27 -1 -40 -2v82c-98 21 -154 112 -154 216v8
c0 119 74 221 199 221c73 0 141 -42 174 -109l-102 -63c-10 32 -36 57 -72 57c-53 0 -80 -48 -80 -106v-8c0 -58 27 -106 80 -106z" />
    <glyph glyph-name="cdotaccent" unicode="&#x10b;" horiz-adv-x="438" 
d="M227 497c-42 0 -71 28 -71 72c0 41 29 71 71 71s72 -30 72 -71c0 -44 -30 -72 -72 -72zM232 -5c-125 0 -199 102 -199 221v8c0 119 74 221 199 221c73 0 141 -42 174 -109l-102 -63c-10 32 -36 57 -72 57c-53 0 -80 -48 -80 -106v-8c0 -58 27 -106 80 -106
c35 0 62 24 71 55l101 -65c-36 -68 -105 -105 -172 -105z" />
    <glyph glyph-name="d" unicode="d" horiz-adv-x="484" 
d="M301 592l125 -5v-587h-117l-8 66v8c-20 -35 -50 -68 -92 -74c-102 -16 -177 80 -177 213c0 131 80 249 184 229c42 -8 68 -42 85 -78v228zM237 106c24 1 44 16 64 40v146c-19 24 -40 40 -63 43c-46 4 -77 -49 -77 -124c0 -63 27 -107 76 -105z" />
    <glyph glyph-name="eth" unicode="&#xf0;" horiz-adv-x="484" 
d="M451 329c0 -122 -38 -296 -183 -329c-13 -3 -27 -5 -41 -5h-2c-120 1 -194 105 -194 225c0 116 80 219 188 217c50 -1 90 -25 121 -60c-7 66 -28 121 -60 166l-51 -47l-49 53l52 48c-23 19 -49 36 -78 50l51 86c37 -16 72 -38 104 -65l53 49l49 -55l-52 -48
c56 -72 92 -170 92 -285zM154 220c0 -77 27 -126 81 -126c10 0 19 2 28 5l12 6c28 19 42 60 42 115c0 85 -28 134 -82 134s-81 -49 -81 -134z" />
    <glyph glyph-name="dcaron" unicode="&#x10f;" horiz-adv-x="484" 
d="M484 604l115 -6l-24 -207l-88 2zM301 364v228l125 -5v-587h-117l-8 66v8c-20 -35 -50 -68 -92 -74c-102 -16 -177 80 -177 213c0 131 80 249 184 229c42 -8 68 -42 85 -78zM237 106c24 1 44 16 64 40v146c-19 24 -40 40 -63 43c-46 4 -77 -49 -77 -124
c0 -63 27 -107 76 -105z" />
    <glyph glyph-name="dcroat" unicode="&#x111;" horiz-adv-x="480" 
d="M468 539l-1 -80h-41v-459h-117l-8 66v8c-20 -35 -50 -68 -92 -74c-102 -16 -177 80 -177 213c0 131 80 249 184 229c42 -8 68 -42 85 -78v95h-79v80h79v53l125 -5v-48h42zM237 106c24 1 44 16 64 40v146c-19 24 -40 40 -63 43c-46 4 -77 -49 -77 -124
c0 -63 27 -107 76 -105z" />
    <glyph glyph-name="e" unicode="e" horiz-adv-x="473" 
d="M236 -5c-124 0 -199 107 -199 225s75 225 199 225s200 -103 200 -213c0 -31 -1 -35 -2 -44h-276v-6c3 -51 38 -81 76 -81c36 0 63 20 75 52l113 -33c-28 -71 -95 -125 -186 -125zM160 263h150c0 49 -38 76 -76 76s-73 -30 -74 -76z" />
    <glyph glyph-name="eacute" unicode="&#xe9;" horiz-adv-x="473" 
d="M223 503l-38 78l179 120l57 -104zM236 -5c-124 0 -199 107 -199 225s75 225 199 225s200 -103 200 -213c0 -31 -1 -35 -2 -44h-276v-6c3 -51 38 -81 76 -81c36 0 63 20 75 52l113 -33c-28 -71 -95 -125 -186 -125zM160 263h150c0 49 -38 76 -76 76s-73 -30 -74 -76z" />
    <glyph glyph-name="ecaron" unicode="&#x11b;" horiz-adv-x="473" 
d="M374 623l-138 -116l-137 120l63 64l74 -65l77 64zM434 188h-276v-6c3 -51 38 -81 76 -81c36 0 63 20 75 52l113 -33c-28 -71 -95 -125 -186 -125c-124 0 -199 107 -199 225s75 225 199 225s200 -103 200 -213c0 -31 -1 -35 -2 -44zM234 339c-38 0 -73 -30 -74 -76h150
c0 49 -38 76 -76 76z" />
    <glyph glyph-name="ecircumflex" unicode="&#xea;" horiz-adv-x="473" 
d="M236 574l-74 -65l-63 64l137 120l138 -116l-61 -67zM434 188h-276v-6c3 -51 38 -81 76 -81c36 0 63 20 75 52l113 -33c-28 -71 -95 -125 -186 -125c-124 0 -199 107 -199 225s75 225 199 225s200 -103 200 -213c0 -31 -1 -35 -2 -44zM234 339c-38 0 -73 -30 -74 -76h150
c0 49 -38 76 -76 76z" />
    <glyph glyph-name="edieresis" unicode="&#xeb;" horiz-adv-x="473" 
d="M319 530c-34 0 -57 24 -57 59s23 58 57 58c36 0 60 -23 60 -58s-24 -59 -60 -59zM135 529c-34 0 -57 24 -57 59s23 58 57 58c36 0 60 -23 60 -58s-24 -59 -60 -59zM236 -5c-124 0 -199 107 -199 225s75 225 199 225s200 -103 200 -213c0 -31 -1 -35 -2 -44h-276v-6
c3 -51 38 -81 76 -81c36 0 63 20 75 52l113 -33c-28 -71 -95 -125 -186 -125zM160 263h150c0 49 -38 76 -76 76s-73 -30 -74 -76z" />
    <glyph glyph-name="edotaccent" unicode="&#x117;" horiz-adv-x="473" 
d="M237 495c-42 0 -71 28 -71 72c0 41 29 71 71 71s72 -30 72 -71c0 -44 -30 -72 -72 -72zM236 -5c-124 0 -199 107 -199 225s75 225 199 225s200 -103 200 -213c0 -31 -1 -35 -2 -44h-276v-6c3 -51 38 -81 76 -81c36 0 63 20 75 52l113 -33c-28 -71 -95 -125 -186 -125z
M160 263h150c0 49 -38 76 -76 76s-73 -30 -74 -76z" />
    <glyph glyph-name="egrave" unicode="&#xe8;" horiz-adv-x="473" 
d="M245 503l-198 93l58 104l179 -120zM236 -5c-124 0 -199 107 -199 225s75 225 199 225s200 -103 200 -213c0 -31 -1 -35 -2 -44h-276v-6c3 -51 38 -81 76 -81c36 0 63 20 75 52l113 -33c-28 -71 -95 -125 -186 -125zM160 263h150c0 49 -38 76 -76 76s-73 -30 -74 -76z" />
    <glyph glyph-name="emacron" unicode="&#x113;" horiz-adv-x="473" 
d="M112 529v96h251l-1 -96h-250zM236 -5c-124 0 -199 107 -199 225s75 225 199 225s200 -103 200 -213c0 -31 -1 -35 -2 -44h-276v-6c3 -51 38 -81 76 -81c36 0 63 20 75 52l113 -33c-28 -71 -95 -125 -186 -125zM160 263h150c0 49 -38 76 -76 76s-73 -30 -74 -76z" />
    <glyph glyph-name="eogonek" unicode="&#x119;" horiz-adv-x="473" 
d="M434 188h-276v-6c3 -51 38 -81 76 -81c36 0 63 20 75 52l113 -33c-21 -52 -62 -95 -119 -114c-46 -24 -76 -44 -91 -65c-28 -40 17 -81 56 -33l47 -52c-75 -89 -201 -36 -177 66c7 31 26 57 55 78c-98 21 -156 116 -156 220c0 118 75 225 199 225s200 -103 200 -213
c0 -31 -1 -35 -2 -44zM234 339c-38 0 -73 -30 -74 -76h150c0 49 -38 76 -76 76z" />
    <glyph glyph-name="f" unicode="f" horiz-adv-x="297" 
d="M249 495c-21 -2 -44 -18 -44 -58v-9h74v-105h-74v-323h-125v323h-48v105h48v17c0 106 68 156 157 156c27 0 65 -7 81 -15l-28 -95c-11 2 -23 6 -41 4z" />
    <glyph glyph-name="g" unicode="g" horiz-adv-x="488" 
d="M469 434l-3 -111l-72 4c20 -32 34 -70 34 -112c0 -44 -14 -85 -38 -119c23 -29 40 -67 39 -109c-1 -108 -82 -196 -201 -196c-106 0 -170 75 -190 138l99 43c9 -22 38 -67 91 -67c47 0 78 34 78 82c0 17 -3 30 -8 41c-21 -7 -43 -11 -66 -11c-120 0 -201 101 -201 214
c0 106 81 214 201 214h1h3zM150 231c0 -55 28 -106 82 -106s83 51 83 106c0 56 -29 107 -83 107s-82 -51 -82 -107z" />
    <glyph glyph-name="gbreve" unicode="&#x11f;" horiz-adv-x="488" 
d="M238 517c-61 0 -113 34 -142 83l66 57c14 -18 40 -45 76 -45c41 0 62 25 76 45l67 -57c-29 -50 -81 -83 -143 -83zM469 434l-3 -111l-72 4c20 -32 34 -70 34 -112c0 -44 -14 -85 -38 -119c23 -29 40 -67 39 -109c-1 -108 -82 -196 -201 -196c-106 0 -170 75 -190 138
l99 43c9 -22 38 -67 91 -67c47 0 78 34 78 82c0 17 -3 30 -8 41c-21 -7 -43 -11 -66 -11c-120 0 -201 101 -201 214c0 106 81 214 201 214h1h3zM150 231c0 -55 28 -106 82 -106s83 51 83 106c0 56 -29 107 -83 107s-82 -51 -82 -107z" />
    <glyph glyph-name="gcommaaccent" unicode="&#x123;" horiz-adv-x="488" 
d="M304 681l-37 -173l-94 7l14 178zM469 434l-3 -111l-72 4c20 -32 34 -70 34 -112c0 -44 -14 -85 -38 -119c23 -29 40 -67 39 -109c-1 -108 -82 -196 -201 -196c-106 0 -170 75 -190 138l99 43c9 -22 38 -67 91 -67c47 0 78 34 78 82c0 17 -3 30 -8 41
c-21 -7 -43 -11 -66 -11c-120 0 -201 101 -201 214c0 106 81 214 201 214h1h3zM150 231c0 -55 28 -106 82 -106s83 51 83 106c0 56 -29 107 -83 107s-82 -51 -82 -107z" />
    <glyph glyph-name="gdotaccent" unicode="&#x121;" horiz-adv-x="488" 
d="M238 495c-42 0 -71 28 -71 72c0 41 29 71 71 71s72 -30 72 -71c0 -44 -30 -72 -72 -72zM469 434l-3 -111l-72 4c20 -32 34 -70 34 -112c0 -44 -14 -85 -38 -119c23 -29 40 -67 39 -109c-1 -108 -82 -196 -201 -196c-106 0 -170 75 -190 138l99 43c9 -22 38 -67 91 -67
c47 0 78 34 78 82c0 17 -3 30 -8 41c-21 -7 -43 -11 -66 -11c-120 0 -201 101 -201 214c0 106 81 214 201 214h1h3zM150 231c0 -55 28 -106 82 -106s83 51 83 106c0 56 -29 107 -83 107s-82 -51 -82 -107z" />
    <glyph glyph-name="h" unicode="h" horiz-adv-x="488" 
d="M286 445c87 11 149 -62 149 -155v-290h-125v255c0 48 -23 82 -69 77c-22 -2 -43 -18 -58 -36v-296h-125v586l125 7v-222c25 40 63 69 103 74z" />
    <glyph glyph-name="hbar" unicode="&#x127;" horiz-adv-x="480" 
d="M286 445c87 11 149 -62 149 -155v-290h-125v255c0 48 -23 82 -69 77c-22 -2 -43 -18 -58 -36v-296h-125v460h-52v80h52v46l125 7v-53h69l-1 -80h-68v-89c25 40 63 69 103 74z" />
    <glyph glyph-name="i" unicode="i" horiz-adv-x="241" 
d="M119 470c-42 0 -71 28 -71 72c0 41 29 71 71 71s72 -30 72 -71c0 -44 -30 -72 -72 -72zM58 0v425l125 7v-432h-125z" />
    <glyph glyph-name="dotlessi" unicode="&#x131;" horiz-adv-x="241" 
d="M58 0v425l125 7v-432h-125z" />
    <glyph glyph-name="iacute" unicode="&#xed;" horiz-adv-x="241" 
d="M105 478l-38 78l179 120l57 -104zM58 0v425l125 7v-432h-125z" />
    <glyph glyph-name="uni01D0" unicode="&#x1d0;" horiz-adv-x="241" 
d="M256 598l-138 -116l-137 120l63 64l74 -65l77 64zM58 0v425l125 7v-432h-125z" />
    <glyph glyph-name="icircumflex" unicode="&#xee;" horiz-adv-x="241" 
d="M118 668l138 -116l-61 -67l-77 64l-74 -65l-63 64zM58 0v425l125 7v-432h-125z" />
    <glyph glyph-name="idieresis" unicode="&#xef;" horiz-adv-x="241" 
d="M201 505c-34 0 -57 24 -57 59s23 58 57 58c36 0 60 -23 60 -58s-24 -59 -60 -59zM17 504c-34 0 -57 24 -57 59s23 58 57 58c36 0 60 -23 60 -58s-24 -59 -60 -59zM58 0v425l125 7v-432h-125z" />
    <glyph glyph-name="i.loclTRK" horiz-adv-x="241" 
d="M119 470c-42 0 -71 28 -71 72c0 41 29 71 71 71s72 -30 72 -71c0 -44 -30 -72 -72 -72zM58 0v425l125 7v-432h-125z" />
    <glyph glyph-name="igrave" unicode="&#xec;" horiz-adv-x="241" 
d="M127 478l-198 93l58 104l179 -120zM58 0v425l125 7v-432h-125z" />
    <glyph glyph-name="ij" unicode="&#x133;" horiz-adv-x="472" 
d="M355 480c-42 0 -71 28 -71 72c0 41 29 71 71 71s72 -30 72 -71c0 -44 -30 -72 -72 -72zM119 470c-42 0 -71 28 -71 72c0 41 29 71 71 71s72 -30 72 -71c0 -44 -30 -72 -72 -72zM58 0v425l125 7v-432h-125zM270 -209c-40 0 -80 14 -95 31l28 103c10 -5 25 -9 41 -8
c29 1 49 23 49 75v433l125 7v-440c0 -138 -52 -201 -148 -201z" />
    <glyph glyph-name="imacron" unicode="&#x12b;" horiz-adv-x="241" 
d="M-6 504v96h251l-1 -96h-250zM58 0v425l125 7v-432h-125z" />
    <glyph glyph-name="iogonek" unicode="&#x12f;" horiz-adv-x="241" 
d="M119 470c-42 0 -71 28 -71 72c0 41 29 71 71 71s72 -30 72 -71c0 -44 -30 -72 -72 -72zM58 0v425l125 7v-432h-4c-53 -27 -86 -49 -103 -71c-28 -40 17 -81 56 -33l47 -52c-75 -89 -201 -36 -177 66c9 37 35 69 75 90h-19z" />
    <glyph glyph-name="j" unicode="j" horiz-adv-x="231" 
d="M114 480c-42 0 -71 28 -71 72c0 41 29 71 71 71s72 -30 72 -71c0 -44 -30 -72 -72 -72zM29 -209c-40 0 -80 14 -95 31l28 103c10 -5 25 -9 41 -8c29 1 49 23 49 75v433l125 7v-440c0 -138 -52 -201 -148 -201z" />
    <glyph glyph-name="uni0237" unicode="&#x237;" horiz-adv-x="231" 
d="M29 -209c-40 0 -80 14 -95 31l28 103c10 -5 25 -9 41 -8c29 1 49 23 49 75v433l125 7v-440c0 -138 -52 -201 -148 -201z" />
    <glyph glyph-name="k" unicode="k" horiz-adv-x="460" 
d="M334 0l-100 179l-51 -63v-116h-125v573l125 7v-292l127 152h134l-136 -169l152 -271h-126z" />
    <glyph glyph-name="kcommaaccent" unicode="&#x137;" horiz-adv-x="460" 
d="M308 271l152 -271h-126l-100 179l-51 -63v-116h-125v573l125 7v-292l127 152h134zM129 -197l36 171l95 -7l-14 -176z" />
    <glyph glyph-name="l" unicode="l" horiz-adv-x="277" 
d="M214 -1c-103 0 -157 40 -157 171l1 415l125 7l-1 -382c0 -55 5 -86 44 -89c9 -1 19 -1 27 -1v-119c-15 -1 -26 -2 -39 -2z" />
    <glyph glyph-name="lacute" unicode="&#x13a;" horiz-adv-x="296" 
d="M118 653l-38 78l179 120l57 -104zM220 -1c-103 0 -157 40 -157 171l1 415l125 7l-1 -382c0 -55 5 -86 44 -89c9 -1 19 -1 27 -1v-119c-15 -1 -26 -2 -39 -2z" />
    <glyph glyph-name="lcaron" unicode="&#x13e;" horiz-adv-x="382" 
d="M206 -1c-103 0 -157 40 -157 171l1 415l125 7l-1 -382c0 -55 5 -86 44 -89c9 -1 19 -1 27 -1v-119c-15 -1 -26 -2 -39 -2zM346 377l-88 2l-3 211l115 -6z" />
    <glyph glyph-name="lcommaaccent" unicode="&#x13c;" horiz-adv-x="290" 
d="M214 -1c-103 0 -157 40 -157 171l1 415l125 7l-1 -382c0 -55 5 -86 44 -89c9 -1 19 -1 27 -1v-119c-15 -1 -26 -2 -39 -2zM187 -217l-117 12l36 171l95 -7z" />
    <glyph glyph-name="ldot" unicode="&#x140;" horiz-adv-x="390" 
d="M206 -1c-103 0 -157 40 -157 171l1 415l125 7l-1 -382c0 -55 5 -86 44 -89c9 -1 19 -1 27 -1v-119c-15 -1 -26 -2 -39 -2zM304 272c-34 0 -57 24 -57 59s23 58 57 58c36 0 60 -23 60 -58s-24 -59 -60 -59z" />
    <glyph glyph-name="lslash" unicode="&#x142;" horiz-adv-x="304" 
d="M195 210c0 -55 5 -86 44 -89c9 -1 19 -1 27 -1v-119c-15 -1 -26 -2 -39 -2c-103 0 -157 40 -157 171v48l-59 -56l-56 57l115 110l1 256l125 7v-144l58 55l57 -57l-116 -109v-127z" />
    <glyph glyph-name="m" unicode="m" horiz-adv-x="717" 
d="M516 445c87 11 149 -62 149 -155v-290h-125v255c0 48 -23 82 -69 77c-17 -2 -33 -11 -46 -24v-6v-302h-125v255c0 48 -22 83 -66 77c-21 -2 -40 -16 -53 -34l2 -298h-125v438l116 7l6 -72v-1c25 40 61 68 102 73c60 7 108 -25 130 -76c25 41 63 70 104 76z" />
    <glyph glyph-name="n" unicode="n" horiz-adv-x="488" 
d="M286 445c87 11 149 -62 149 -155v-290h-125v255c0 48 -23 82 -69 77c-22 -2 -43 -18 -58 -36v-296h-125v439l120 7l5 -75c25 40 63 69 103 74z" />
    <glyph glyph-name="nacute" unicode="&#x144;" horiz-adv-x="488" 
d="M434 597l-198 -94l-38 78l179 120zM286 445c87 11 149 -62 149 -155v-290h-125v255c0 48 -23 82 -69 77c-22 -2 -43 -18 -58 -36v-296h-125v439l120 7l5 -75c25 40 63 69 103 74z" />
    <glyph glyph-name="ncaron" unicode="&#x148;" horiz-adv-x="488" 
d="M387 623l-138 -116l-137 120l63 64l74 -65l77 64zM286 445c87 11 149 -62 149 -155v-290h-125v255c0 48 -23 82 -69 77c-22 -2 -43 -18 -58 -36v-296h-125v439l120 7l5 -75c25 40 63 69 103 74z" />
    <glyph glyph-name="ncommaaccent" unicode="&#x146;" horiz-adv-x="488" 
d="M286 445c87 11 149 -62 149 -155v-290h-125v255c0 48 -23 82 -69 77c-22 -2 -43 -18 -58 -36v-296h-125v439l120 7l5 -75c25 40 63 69 103 74zM157 -205l36 171l95 -7l-14 -176z" />
    <glyph glyph-name="eng" unicode="&#x14b;" horiz-adv-x="487" 
d="M286 445c87 11 149 -62 149 -155v-339c0 -110 -68 -165 -156 -165c-48 0 -72 14 -87 23l28 108c11 -3 17 -6 41 -5c29 0 49 23 49 70v273c0 48 -23 82 -69 77c-22 -2 -43 -18 -58 -36v-296h-125v439l120 7l5 -75c25 40 63 69 103 74z" />
    <glyph glyph-name="ntilde" unicode="&#xf1;" horiz-adv-x="488" 
d="M212 560c-16 0 -26 -21 -34 -41l-85 45c8 24 39 90 94 90c40 0 72 -31 97 -31c18 0 26 17 36 41l86 -43c-8 -23 -37 -93 -96 -93c-46 0 -73 32 -98 32zM286 445c87 11 149 -62 149 -155v-290h-125v255c0 48 -23 82 -69 77c-22 -2 -43 -18 -58 -36v-296h-125v439l120 7
l5 -75c25 40 63 69 103 74z" />
    <glyph glyph-name="o" unicode="o" horiz-adv-x="475" 
d="M237 -5c-126 0 -204 102 -204 221v8c0 119 78 221 204 221s205 -102 205 -221v-8c0 -119 -79 -221 -205 -221zM237 102c54 0 82 48 82 114v8c0 66 -28 114 -82 114s-81 -48 -81 -114v-8c0 -66 27 -114 81 -114z" />
    <glyph glyph-name="oacute" unicode="&#xf3;" horiz-adv-x="475" 
d="M224 503l-38 78l179 120l57 -104zM237 -5c-126 0 -204 102 -204 221v8c0 119 78 221 204 221s205 -102 205 -221v-8c0 -119 -79 -221 -205 -221zM237 102c54 0 82 48 82 114v8c0 66 -28 114 -82 114s-81 -48 -81 -114v-8c0 -66 27 -114 81 -114z" />
    <glyph glyph-name="uni01D2" unicode="&#x1d2;" horiz-adv-x="475" 
d="M375 623l-138 -116l-137 120l63 64l74 -65l77 64zM237 445c126 0 205 -102 205 -221v-8c0 -119 -79 -221 -205 -221s-204 102 -204 221v8c0 119 78 221 204 221zM319 216v8c0 66 -28 114 -82 114s-81 -48 -81 -114v-8c0 -66 27 -114 81 -114s82 48 82 114z" />
    <glyph glyph-name="ocircumflex" unicode="&#xf4;" horiz-adv-x="475" 
d="M237 574l-74 -65l-63 64l137 120l138 -116l-61 -67zM237 445c126 0 205 -102 205 -221v-8c0 -119 -79 -221 -205 -221s-204 102 -204 221v8c0 119 78 221 204 221zM319 216v8c0 66 -28 114 -82 114s-81 -48 -81 -114v-8c0 -66 27 -114 81 -114s82 48 82 114z" />
    <glyph glyph-name="odieresis" unicode="&#xf6;" horiz-adv-x="475" 
d="M320 530c-34 0 -57 24 -57 59s23 58 57 58c36 0 60 -23 60 -58s-24 -59 -60 -59zM136 529c-34 0 -57 24 -57 59s23 58 57 58c36 0 60 -23 60 -58s-24 -59 -60 -59zM237 -5c-126 0 -204 102 -204 221v8c0 119 78 221 204 221s205 -102 205 -221v-8
c0 -119 -79 -221 -205 -221zM237 102c54 0 82 48 82 114v8c0 66 -28 114 -82 114s-81 -48 -81 -114v-8c0 -66 27 -114 81 -114z" />
    <glyph glyph-name="ograve" unicode="&#xf2;" horiz-adv-x="475" 
d="M246 503l-198 93l58 104l179 -120zM237 -5c-126 0 -204 102 -204 221v8c0 119 78 221 204 221s205 -102 205 -221v-8c0 -119 -79 -221 -205 -221zM237 102c54 0 82 48 82 114v8c0 66 -28 114 -82 114s-81 -48 -81 -114v-8c0 -66 27 -114 81 -114z" />
    <glyph glyph-name="ohungarumlaut" unicode="&#x151;" horiz-adv-x="475" 
d="M196 499l-97 -1l-2 214l115 -6zM354 496l-96 2l8 210l115 -6zM237 -5c-126 0 -204 102 -204 221v8c0 119 78 221 204 221s205 -102 205 -221v-8c0 -119 -79 -221 -205 -221zM237 102c54 0 82 48 82 114v8c0 66 -28 114 -82 114s-81 -48 -81 -114v-8
c0 -66 27 -114 81 -114z" />
    <glyph glyph-name="omacron" unicode="&#x14d;" horiz-adv-x="475" 
d="M113 529v96h251l-1 -96h-250zM237 -5c-126 0 -204 102 -204 221v8c0 119 78 221 204 221s205 -102 205 -221v-8c0 -119 -79 -221 -205 -221zM237 102c54 0 82 48 82 114v8c0 66 -28 114 -82 114s-81 -48 -81 -114v-8c0 -66 27 -114 81 -114z" />
    <glyph glyph-name="oslash" unicode="&#xf8;" horiz-adv-x="479" 
d="M462 402l-51 -51c21 -35 33 -76 33 -119v-24c0 -111 -79 -213 -205 -213c-54 0 -99 19 -133 49l-52 -53l-39 41l54 55c-22 35 -34 77 -34 121v24c0 111 78 213 204 213c55 0 101 -19 136 -51l47 48zM158 192c0 -5 0 -10 1 -15l144 145c-14 21 -35 32 -64 32
c-54 0 -81 -40 -81 -106v-56zM321 248v12l-144 -145c14 -19 34 -29 62 -29c54 0 82 40 82 106v56z" />
    <glyph glyph-name="otilde" unicode="&#xf5;" horiz-adv-x="475" 
d="M166 519l-85 45c8 24 39 90 94 90c40 0 72 -31 97 -31c18 0 26 17 36 41l86 -43c-8 -23 -37 -93 -96 -93c-46 0 -73 32 -98 32c-16 0 -26 -21 -34 -41zM237 -5c-126 0 -204 102 -204 221v8c0 119 78 221 204 221s205 -102 205 -221v-8c0 -119 -79 -221 -205 -221z
M237 102c54 0 82 48 82 114v8c0 66 -28 114 -82 114s-81 -48 -81 -114v-8c0 -66 27 -114 81 -114z" />
    <glyph glyph-name="oe" unicode="&#x153;" horiz-adv-x="789" 
d="M750 188h-276v-6c3 -51 38 -81 76 -81c36 0 63 20 75 52l113 -33c-28 -71 -95 -125 -186 -125c-71 0 -126 35 -160 88c-33 -53 -86 -88 -153 -88c-126 0 -204 102 -204 221v8c0 119 78 221 204 221c67 0 120 -35 153 -88c34 53 89 88 160 88c124 0 200 -103 200 -213
c0 -31 -1 -35 -2 -44zM550 339c-38 0 -73 -30 -74 -76h150c0 49 -38 76 -76 76zM321 216v8c0 58 -28 106 -82 106s-81 -48 -81 -106v-8c0 -58 27 -106 81 -106s82 48 82 106z" />
    <glyph glyph-name="p" unicode="p" horiz-adv-x="483" 
d="M275 445c103 23 176 -90 176 -227c0 -145 -91 -240 -190 -215c-31 8 -58 31 -78 60v-266l-125 6v640l121 7l4 -90c21 38 51 75 92 85zM243 103c46 -1 77 41 77 115c0 70 -26 127 -76 121c-21 -2 -42 -22 -61 -48v-150c18 -20 39 -37 60 -38z" />
    <glyph glyph-name="thorn" unicode="&#xfe;" horiz-adv-x="471" 
d="M263 445c103 23 176 -90 176 -227c0 -145 -91 -240 -190 -215c-30 8 -56 29 -76 57v-265l-125 7v788l125 7v-233c21 36 51 71 90 81zM231 103c46 -1 77 41 77 115c0 70 -26 127 -76 121c-20 -2 -41 -21 -59 -46v-154c18 -20 37 -35 58 -36z" />
    <glyph glyph-name="q" unicode="q" horiz-adv-x="485" 
d="M306 451l121 -6v-648l-125 7v272c-20 -36 -50 -70 -93 -76c-102 -16 -177 80 -177 213c0 131 80 249 184 229c43 -8 69 -43 86 -80v15zM237 106c24 1 45 17 65 41v144c-19 24 -41 41 -64 44c-46 4 -77 -49 -77 -124c0 -63 27 -107 76 -105z" />
    <glyph glyph-name="r" unicode="r" horiz-adv-x="319" 
d="M180 365c21 50 58 87 123 80l-2 -134c-85 10 -120 -38 -121 -144v-167h-125v440l118 6l7 -72v-9z" />
    <glyph glyph-name="racute" unicode="&#x155;" horiz-adv-x="319" 
d="M342 605l-198 -94l-38 78l179 120zM180 365c21 50 58 87 123 80l-2 -134c-85 10 -120 -38 -121 -144v-167h-125v440l118 6l7 -72v-9z" />
    <glyph glyph-name="rcaron" unicode="&#x159;" horiz-adv-x="319" 
d="M295 631l-138 -116l-137 120l63 64l74 -65l77 64zM180 365c21 50 58 87 123 80l-2 -134c-85 10 -120 -38 -121 -144v-167h-125v440l118 6l7 -72v-9z" />
    <glyph glyph-name="rcommaaccent" unicode="&#x157;" horiz-adv-x="319" 
d="M180 365c21 50 58 87 123 80l-2 -134c-85 10 -120 -38 -121 -144v-167h-125v440l118 6l7 -72v-9zM33 -205l36 171l95 -7l-14 -176z" />
    <glyph glyph-name="s" unicode="s" horiz-adv-x="410" 
d="M206 -5c-101 0 -166 73 -174 115l113 36c10 -20 30 -45 63 -45c38 0 51 26 44 43c-22 49 -211 33 -211 163c0 84 74 138 165 138c82 0 142 -50 172 -115l-109 -34c-7 20 -28 46 -59 46c-38 0 -47 -27 -43 -40c14 -48 207 -22 207 -169c0 -79 -78 -138 -168 -138z" />
    <glyph glyph-name="sacute" unicode="&#x15b;" horiz-adv-x="410" 
d="M191 501l-38 78l179 120l57 -104zM206 -5c-101 0 -166 73 -174 115l113 36c10 -20 30 -45 63 -45c38 0 51 26 44 43c-22 49 -211 33 -211 163c0 84 74 138 165 138c82 0 142 -50 172 -115l-109 -34c-7 20 -28 46 -59 46c-38 0 -47 -27 -43 -40c14 -48 207 -22 207 -169
c0 -79 -78 -138 -168 -138z" />
    <glyph glyph-name="scaron" unicode="&#x161;" horiz-adv-x="410" 
d="M342 621l-138 -116l-137 120l63 64l74 -65l77 64zM167 302c14 -48 207 -22 207 -169c0 -79 -78 -138 -168 -138c-101 0 -166 73 -174 115l113 36c10 -20 30 -45 63 -45c38 0 51 26 44 43c-22 49 -211 33 -211 163c0 84 74 138 165 138c82 0 142 -50 172 -115l-109 -34
c-7 20 -28 46 -59 46c-38 0 -47 -27 -43 -40z" />
    <glyph glyph-name="scedilla" unicode="&#x15f;" horiz-adv-x="410" 
d="M167 302c14 -48 207 -22 207 -169c0 -71 -62 -125 -140 -136l-6 -33c56 13 103 -23 103 -76c0 -61 -48 -97 -109 -97c-46 0 -77 21 -92 36l38 55c7 -7 22 -18 48 -18c16 0 34 9 34 28c0 25 -26 32 -50 31c-16 -1 -27 -1 -40 -2v79c-74 18 -121 75 -128 110l113 36
c10 -20 30 -45 63 -45c38 0 51 26 44 43c-22 49 -211 33 -211 163c0 84 74 138 165 138c82 0 142 -50 172 -115l-109 -34c-7 20 -28 46 -59 46c-38 0 -47 -27 -43 -40z" />
    <glyph glyph-name="scommaaccent" unicode="&#x219;" horiz-adv-x="410" 
d="M206 -5c-101 0 -166 73 -174 115l113 36c10 -20 30 -45 63 -45c38 0 51 26 44 43c-22 49 -211 33 -211 163c0 84 74 138 165 138c82 0 142 -50 172 -115l-109 -34c-7 20 -28 46 -59 46c-38 0 -47 -27 -43 -40c14 -48 207 -22 207 -169c0 -79 -78 -138 -168 -138z
M231 -214l-117 12l36 171l95 -7z" />
    <glyph glyph-name="germandbls" unicode="&#xdf;" horiz-adv-x="514" 
d="M70 0v388c0 124 51 197 175 197c107 0 182 -59 182 -138c0 -63 -39 -85 -39 -109c0 -37 93 -60 93 -186c0 -82 -52 -157 -148 -157c-34 0 -62 9 -90 28l16 107c10 -6 24 -11 40 -10c25 1 56 18 55 63c-2 71 -100 74 -100 144c0 41 52 74 52 113c0 30 -25 49 -59 49
c-37 0 -57 -26 -57 -72l-1 -417h-119z" />
    <glyph glyph-name="t" unicode="t" horiz-adv-x="323" 
d="M282 320h-73v-110c0 -55 6 -86 44 -89c10 -1 20 -1 28 -1v-119c-15 -1 -27 -2 -39 -2c-103 0 -158 40 -158 171v150h-54v120h55v118l125 6v-124h72v-120z" />
    <glyph glyph-name="tbar" unicode="&#x167;" horiz-adv-x="323" 
d="M290 251l-1 -80h-78c4 -31 14 -48 42 -50c10 -1 20 -1 28 -1v-119c-15 -1 -27 -2 -39 -2c-103 0 -158 40 -158 171v1h-40v80h40v69h-54v120h55v118l125 6v-124h72v-120h-73v-69h81z" />
    <glyph glyph-name="tcaron" unicode="&#x165;" horiz-adv-x="434" 
d="M319 591l115 -6l-24 -207l-88 2zM200 564v-124h72v-120h-73v-110c0 -55 6 -86 44 -89c10 -1 20 -1 28 -1v-119c-15 -1 -27 -2 -39 -2c-103 0 -158 40 -158 171v150h-54v120h55v118z" />
    <glyph glyph-name="uni0163" unicode="&#x163;" horiz-adv-x="323" 
d="M227 -31c56 13 103 -23 103 -76c0 -61 -48 -97 -109 -97c-46 0 -77 21 -92 36l38 55c7 -7 22 -18 48 -18c16 0 34 9 34 28c0 25 -26 32 -50 31c-16 -1 -27 -1 -40 -2v86h1c-50 20 -76 68 -76 158v150h-54v120h55v118l125 6v-124h72v-120h-73v-110c0 -55 6 -86 44 -89
c10 -1 20 -1 28 -1v-119c-15 -1 -27 -2 -39 -2h-10z" />
    <glyph glyph-name="uni021B" unicode="&#x21b;" horiz-adv-x="323" 
d="M282 320h-73v-110c0 -55 6 -86 44 -89c10 -1 20 -1 28 -1v-119c-15 -1 -27 -2 -39 -2c-103 0 -158 40 -158 171v150h-54v120h55v118l125 6v-124h72v-120zM113 -197l36 171l95 -7l-14 -176z" />
    <glyph glyph-name="u" unicode="u" horiz-adv-x="487" 
d="M305 440h125v-440h-121l-5 68c-25 -37 -60 -64 -103 -68c-85 -8 -150 52 -150 155v280l125 7v-255c0 -51 23 -83 69 -76c24 3 44 20 59 41z" />
    <glyph glyph-name="uacute" unicode="&#xfa;" horiz-adv-x="487" 
d="M430 603l-198 -94l-38 78l179 120zM304 152l1 288h125v-440h-121l-5 68c-25 -37 -60 -64 -103 -68c-85 -8 -150 52 -150 155v280l125 7v-255c0 -51 23 -83 69 -76c24 3 44 20 59 41z" />
    <glyph glyph-name="uni01D4" unicode="&#x1d4;" horiz-adv-x="487" 
d="M383 629l-138 -116l-137 120l63 64l74 -65l77 64zM305 440h125v-440h-121l-5 68c-25 -37 -60 -64 -103 -68c-85 -8 -150 52 -150 155v280l125 7v-255c0 -51 23 -83 69 -76c24 3 44 20 59 41z" />
    <glyph glyph-name="ucircumflex" unicode="&#xfb;" horiz-adv-x="487" 
d="M245 580l-74 -65l-63 64l137 120l138 -116l-61 -67zM305 440h125v-440h-121l-5 68c-25 -37 -60 -64 -103 -68c-85 -8 -150 52 -150 155v280l125 7v-255c0 -51 23 -83 69 -76c24 3 44 20 59 41z" />
    <glyph glyph-name="udieresis" unicode="&#xfc;" horiz-adv-x="487" 
d="M328 536c-34 0 -57 24 -57 59s23 58 57 58c36 0 60 -23 60 -58s-24 -59 -60 -59zM144 535c-34 0 -57 24 -57 59s23 58 57 58c36 0 60 -23 60 -58s-24 -59 -60 -59zM305 440h125v-440h-121l-5 68c-25 -37 -60 -64 -103 -68c-85 -8 -150 52 -150 155v280l125 7v-255
c0 -51 23 -83 69 -76c24 3 44 20 59 41z" />
    <glyph glyph-name="ugrave" unicode="&#xf9;" horiz-adv-x="487" 
d="M293 586l-39 -77l-198 93l58 104zM305 440h125v-440h-121l-5 68c-25 -37 -60 -64 -103 -68c-85 -8 -150 52 -150 155v280l125 7v-255c0 -51 23 -83 69 -76c24 3 44 20 59 41z" />
    <glyph glyph-name="uhungarumlaut" unicode="&#x171;" horiz-adv-x="487" 
d="M204 505l-97 -1l-2 214l115 -6zM389 708l-27 -206l-96 2l8 210zM305 440h125v-440h-121l-5 68c-25 -37 -60 -64 -103 -68c-85 -8 -150 52 -150 155v280l125 7v-255c0 -51 23 -83 69 -76c24 3 44 20 59 41z" />
    <glyph glyph-name="umacron" unicode="&#x16b;" horiz-adv-x="487" 
d="M372 631l-1 -96h-250v96h251zM305 440h125v-440h-121l-5 68c-25 -37 -60 -64 -103 -68c-85 -8 -150 52 -150 155v280l125 7v-255c0 -51 23 -83 69 -76c24 3 44 20 59 41z" />
    <glyph glyph-name="uogonek" unicode="&#x173;" horiz-adv-x="487" 
d="M305 440h125v-440h-2c-54 -28 -88 -49 -105 -72c-28 -40 17 -81 56 -33l47 -52c-75 -89 -201 -36 -177 66c9 38 36 70 77 91h-17l-5 68c-25 -37 -60 -64 -103 -68c-85 -8 -150 52 -150 155v280l125 7v-255c0 -51 23 -83 69 -76c24 3 44 20 59 41z" />
    <glyph glyph-name="uring" unicode="&#x16f;" horiz-adv-x="487" 
d="M245 501c-60 0 -105 49 -105 106c0 58 45 105 105 105c58 0 106 -47 106 -105c0 -57 -48 -106 -106 -106zM243 640c-18 0 -32 -15 -32 -34c0 -20 14 -34 32 -34c19 0 34 14 34 34c0 19 -15 34 -34 34zM305 440h125v-440h-121l-5 68c-25 -37 -60 -64 -103 -68
c-85 -8 -150 52 -150 155v280l125 7v-255c0 -51 23 -83 69 -76c24 3 44 20 59 41z" />
    <glyph glyph-name="v" unicode="v" horiz-adv-x="434" 
d="M307 443l121 -7l-144 -436h-134l-144 436l121 7l90 -312z" />
    <glyph glyph-name="w" unicode="w" horiz-adv-x="611" 
d="M484 446l117 -8l-111 -438h-119l-65 234l-66 -234h-119l-111 438l117 8l66 -293l76 281h75l74 -275z" />
    <glyph glyph-name="wacute" unicode="&#x1e83;" horiz-adv-x="611" 
d="M489 597l-198 -94l-38 78l179 120zM484 446l117 -8l-111 -438h-119l-65 234l-66 -234h-119l-111 438l117 8l66 -293l76 281h75l74 -275z" />
    <glyph glyph-name="wcircumflex" unicode="&#x175;" horiz-adv-x="611" 
d="M304 574l-74 -65l-63 64l137 120l138 -116l-61 -67zM484 446l117 -8l-111 -438h-119l-65 234l-66 -234h-119l-111 438l117 8l66 -293l76 281h75l74 -275z" />
    <glyph glyph-name="wdieresis" unicode="&#x1e85;" horiz-adv-x="611" 
d="M387 530c-34 0 -57 24 -57 59s23 58 57 58c36 0 60 -23 60 -58s-24 -59 -60 -59zM203 529c-34 0 -57 24 -57 59s23 58 57 58c36 0 60 -23 60 -58s-24 -59 -60 -59zM484 446l117 -8l-111 -438h-119l-65 234l-66 -234h-119l-111 438l117 8l66 -293l76 281h75l74 -275z" />
    <glyph glyph-name="wgrave" unicode="&#x1e81;" horiz-adv-x="611" 
d="M352 580l-39 -77l-198 93l58 104zM484 446l117 -8l-111 -438h-119l-65 234l-66 -234h-119l-111 438l117 8l66 -293l76 281h75l74 -275z" />
    <glyph glyph-name="x" unicode="x" horiz-adv-x="476" 
d="M461 436l-153 -217l150 -219h-134l-87 134l-88 -134h-134l150 219l-149 218l134 8l87 -139l91 139z" />
    <glyph glyph-name="y" unicode="y" horiz-adv-x="480" 
d="M297 440h125v-432c0 -142 -92 -219 -211 -219c-75 0 -137 45 -156 69l56 89c18 -18 54 -44 100 -44c52 0 88 38 88 104v53c-25 -33 -58 -56 -98 -60c-85 -8 -150 52 -150 155v280l125 7v-255c0 -51 23 -83 69 -76c21 3 39 16 53 34z" />
    <glyph glyph-name="yacute" unicode="&#xfd;" horiz-adv-x="480" 
d="M420 599l-198 -94l-38 78l179 120zM297 440h125v-432c0 -142 -92 -219 -211 -219c-75 0 -137 45 -156 69l56 89c18 -18 54 -44 100 -44c52 0 88 38 88 104v53c-25 -33 -58 -56 -98 -60c-85 -8 -150 52 -150 155v280l125 7v-255c0 -51 23 -83 69 -76c21 3 39 16 53 34z
" />
    <glyph glyph-name="ycircumflex" unicode="&#x177;" horiz-adv-x="480" 
d="M235 576l-74 -65l-63 64l137 120l138 -116l-61 -67zM297 440h125v-432c0 -142 -92 -219 -211 -219c-75 0 -137 45 -156 69l56 89c18 -18 54 -44 100 -44c52 0 88 38 88 104v53c-25 -33 -58 -56 -98 -60c-85 -8 -150 52 -150 155v280l125 7v-255c0 -51 23 -83 69 -76
c21 3 39 16 53 34z" />
    <glyph glyph-name="ydieresis" unicode="&#xff;" horiz-adv-x="480" 
d="M318 532c-34 0 -57 24 -57 59s23 58 57 58c36 0 60 -23 60 -58s-24 -59 -60 -59zM134 531c-34 0 -57 24 -57 59s23 58 57 58c36 0 60 -23 60 -58s-24 -59 -60 -59zM297 440h125v-432c0 -142 -92 -219 -211 -219c-75 0 -137 45 -156 69l56 89c18 -18 54 -44 100 -44
c52 0 88 38 88 104v53c-25 -33 -58 -56 -98 -60c-85 -8 -150 52 -150 155v280l125 7v-255c0 -51 23 -83 69 -76c21 3 39 16 53 34z" />
    <glyph glyph-name="ygrave" unicode="&#x1ef3;" horiz-adv-x="480" 
d="M283 582l-39 -77l-198 93l58 104zM297 440h125v-432c0 -142 -92 -219 -211 -219c-75 0 -137 45 -156 69l56 89c18 -18 54 -44 100 -44c52 0 88 38 88 104v53c-25 -33 -58 -56 -98 -60c-85 -8 -150 52 -150 155v280l125 7v-255c0 -51 23 -83 69 -76c21 3 39 16 53 34z" />
    <glyph glyph-name="z" unicode="z" horiz-adv-x="420" 
d="M375 440v-106l-175 -217h175v-117h-329v106l175 217h-175v117h329z" />
    <glyph glyph-name="zacute" unicode="&#x17a;" horiz-adv-x="420" 
d="M398 595l-198 -94l-38 78l179 120zM46 323v117h329v-106l-175 -217h175v-117h-329v106l175 217h-175z" />
    <glyph glyph-name="zcaron" unicode="&#x17e;" horiz-adv-x="420" 
d="M351 621l-138 -116l-137 120l63 64l74 -65l77 64zM375 440v-106l-175 -217h175v-117h-329v106l175 217h-175v117h329z" />
    <glyph glyph-name="zdotaccent" unicode="&#x17c;" horiz-adv-x="420" 
d="M214 493c-42 0 -71 28 -71 72c0 41 29 71 71 71s72 -30 72 -71c0 -44 -30 -72 -72 -72zM375 440v-106l-175 -217h175v-117h-329v106l175 217h-175v117h329z" />
    <glyph glyph-name="f_f.dlig" horiz-adv-x="594" 
d="M80 445c0 106 68 156 157 156c27 0 65 -7 81 -15l-28 -95c-11 2 -23 6 -41 4c-21 -2 -44 -18 -44 -58v-9h74v-105h-74v-323h-125v323h-48v105h48v17zM546 495c-21 -2 -44 -18 -44 -58v-9h74v-105h-74v-323h-125v323h-48v105h48v17c0 106 68 156 157 156
c27 0 65 -7 81 -15l-28 -95c-11 2 -23 6 -41 4z" />
    <glyph glyph-name="f_f_i.dlig" horiz-adv-x="837" 
d="M713 470c-42 0 -71 28 -71 72c0 41 29 71 71 71s72 -30 72 -71c0 -44 -30 -72 -72 -72zM80 445c0 106 68 156 157 156c27 0 65 -7 81 -15l-28 -95c-11 2 -23 6 -41 4c-21 -2 -44 -18 -44 -58v-9h74v-105h-74v-323h-125v323h-48v105h48v17zM376 445c0 106 68 156 157 156
c27 0 65 -7 81 -15l-28 -95c-11 2 -23 6 -41 4c-21 -2 -44 -18 -44 -58v-9h74v-105h-74v-323h-125v323h-48v105h48v17zM652 0v425l125 7v-432h-125z" />
    <glyph glyph-name="zero" unicode="0" horiz-adv-x="524" 
d="M263 -4c-122 0 -221 95 -221 277v15c0 181 98 277 221 277c122 0 220 -95 220 -277v-15c0 -181 -96 -277 -220 -277zM263 112c53 0 96 40 96 161v15c0 121 -42 161 -96 161c-53 0 -97 -40 -97 -161v-15c0 -121 42 -161 97 -161z" />
    <glyph glyph-name="one" unicode="1" horiz-adv-x="313" 
d="M22 548l215 15v-563h-126v433l-89 -6v121z" />
    <glyph glyph-name="two" unicode="2" horiz-adv-x="441" 
d="M209 118h200v-118h-367v104l185 208c21 23 43 54 43 89c-1 32 -20 56 -52 56c-33 0 -52 -25 -57 -61l-116 30c18 93 87 147 174 147c103 0 177 -73 177 -170c0 -62 -37 -110 -68 -147z" />
    <glyph glyph-name="three" unicode="3" horiz-adv-x="448" 
d="M284 338c79 -3 131 -72 131 -153c0 -105 -85 -190 -190 -190c-91 0 -166 64 -184 142l110 32c4 -26 31 -63 70 -63c43 0 75 36 75 79s-25 77 -65 78c-23 0 -37 -9 -51 -17l-49 86l121 115h-194v113h336v-121z" />
    <glyph glyph-name="four" unicode="4" horiz-adv-x="495" 
d="M455 223v-117h-46v-106h-125l1 106h-255l90 454h118l-59 -337h107l2 195l121 -7v-188h46z" />
    <glyph glyph-name="five" unicode="5" horiz-adv-x="450" 
d="M263 351c82 -1 154 -69 154 -165c0 -105 -85 -190 -190 -190c-91 0 -167 64 -185 142l111 32c3 -27 31 -63 70 -63c43 0 75 35 75 79c0 43 -32 78 -74 78c-27 0 -48 -14 -61 -32l-100 61l17 267h302v-117h-187l-5 -109c24 12 49 18 73 17z" />
    <glyph glyph-name="six" unicode="6" horiz-adv-x="464" 
d="M273 363c99 0 157 -91 157 -170c0 -110 -75 -198 -199 -198c-113 0 -199 86 -197 199c0 120 127 289 177 366h129c-43 -69 -89 -143 -125 -209c18 8 38 12 58 12zM231 106c46 0 75 37 75 82s-29 80 -75 80c-37 0 -65 -24 -74 -57c-1 -8 -2 -16 -2 -23
c0 -45 29 -82 76 -82z" />
    <glyph glyph-name="seven" unicode="7" horiz-adv-x="395" 
d="M30 560h363l-195 -560h-127l155 439h-196v121z" />
    <glyph glyph-name="eight" unicode="8" horiz-adv-x="480" 
d="M359 308c48 -28 79 -75 79 -138c0 -99 -81 -175 -198 -175c-114 0 -198 75 -198 175c0 63 31 110 79 138c-31 26 -50 63 -50 102c0 86 68 155 169 155s169 -69 169 -155c0 -40 -19 -76 -50 -102zM240 466c-34 0 -58 -25 -58 -60s25 -59 58 -59c34 0 59 24 59 59
c0 36 -25 60 -59 60zM240 97c50 0 77 34 77 79c0 44 -27 78 -77 78c-51 0 -77 -34 -77 -78c0 -46 28 -79 77 -79z" />
    <glyph glyph-name="nine" unicode="9" horiz-adv-x="467" 
d="M230 565c122 0 203 -91 202 -199c0 -101 -105 -236 -169 -366h-126c37 68 78 142 111 209c-17 -7 -35 -11 -55 -11c-84 -1 -158 62 -158 172c0 107 82 195 195 195zM231 297c38 0 66 26 73 62c1 7 2 15 2 21c0 43 -29 78 -75 78c-47 0 -75 -35 -75 -79
c0 -46 28 -82 75 -82z" />
    <glyph glyph-name="asterisk" unicode="*" horiz-adv-x="441" 
d="M381 478l-124 -43l124 -45l-43 -72l-95 80l18 -125h-81l18 125l-96 -80l-42 72l123 45l-123 43l42 73l96 -79l-19 123h81l-17 -123l96 79z" />
    <glyph glyph-name="backslash" unicode="\" horiz-adv-x="305" 
d="M172 0l-192 658h121l192 -658h-121z" />
    <glyph glyph-name="periodcentered" unicode="&#xb7;" horiz-adv-x="163" 
d="M94 216c-40 0 -68 28 -68 69c0 40 28 68 68 68s68 -28 68 -68c0 -41 -28 -69 -68 -69z" />
    <glyph glyph-name="bullet" unicode="&#x2022;" horiz-adv-x="223" 
d="M112 153c-54 0 -92 39 -92 93c0 53 38 90 92 90c53 0 91 -37 91 -90c0 -54 -38 -93 -91 -93z" />
    <glyph glyph-name="colon" unicode=":" horiz-adv-x="238" 
d="M115 296c-40 0 -68 28 -68 69c0 40 28 68 68 68s68 -28 68 -68c0 -41 -28 -69 -68 -69zM117 4c-40 0 -68 28 -68 69c0 40 28 68 68 68s68 -28 68 -68c0 -41 -28 -69 -68 -69z" />
    <glyph glyph-name="comma" unicode="," horiz-adv-x="180" 
d="M131 -122l-113 14l54 235l90 -7z" />
    <glyph glyph-name="ellipsis" unicode="&#x2026;" horiz-adv-x="682" 
d="M97 0c-40 0 -68 28 -68 69c0 40 28 68 68 68s68 -28 68 -68c0 -41 -28 -69 -68 -69zM329 0c-40 0 -68 28 -68 69c0 40 28 68 68 68s68 -28 68 -68c0 -41 -28 -69 -68 -69zM560 0c-40 0 -68 28 -68 69c0 40 28 68 68 68s68 -28 68 -68c0 -41 -28 -69 -68 -69z" />
    <glyph glyph-name="exclam" unicode="!" horiz-adv-x="235" 
d="M82 194l-29 426h134l-21 -426h-84zM126 -2c-40 0 -68 28 -68 69c0 40 28 68 68 68s68 -28 68 -68c0 -41 -28 -69 -68 -69z" />
    <glyph glyph-name="exclamdown" unicode="&#xa1;" horiz-adv-x="254" 
d="M130 435c-40 0 -68 28 -68 69c0 40 28 68 68 68s68 -28 68 -68c0 -41 -28 -69 -68 -69zM194 -71h-135l25 427h84z" />
    <glyph glyph-name="uni203D" unicode="&#x203d;" horiz-adv-x="650" 
d="M409 182l-123 27c1 9 2 16 4 26c14 87 70 117 107 140c32 21 47 37 51 64c5 41 -18 67 -53 72c-36 4 -63 -16 -69 -57l-119 50c27 90 112 140 198 129c130 -16 181 -115 169 -204c-11 -91 -65 -117 -106 -146c-27 -19 -50 -36 -55 -68c-2 -14 -2 -19 -4 -33zM99 186
l-62 422l133 11l13 -427zM325 0c-40 5 -64 36 -59 77c5 39 37 64 76 59c40 -6 64 -37 59 -77s-37 -64 -76 -59zM159 -6c-40 -3 -70 22 -73 63c-4 40 22 70 62 74c40 3 70 -23 73 -63c3 -41 -22 -71 -62 -74z" />
    <glyph glyph-name="numbersign" unicode="#" horiz-adv-x="582" 
d="M556 342h-72l-30 -131h80l-25 -108h-79l-23 -103h-117l23 103h-123l-23 -103h-117l23 103h-78l25 108h77l29 131h-81l25 109h81l24 109h117l-24 -109h123l25 109h117l-25 -109h73zM337 211l30 131h-124l-29 -131h123z" />
    <glyph glyph-name="period" unicode="." horiz-adv-x="206" 
d="M103 0c-40 0 -68 28 -68 69c0 40 28 68 68 68s68 -28 68 -68c0 -41 -28 -69 -68 -69z" />
    <glyph glyph-name="question" unicode="?" horiz-adv-x="414" 
d="M251 188l-125 11v26c3 88 55 125 89 153c29 25 42 42 42 70c0 41 -26 64 -61 64c-37 0 -61 -24 -62 -65l-124 34c15 93 93 154 180 154c131 0 194 -91 194 -181c0 -92 -50 -125 -87 -159c-24 -22 -45 -42 -46 -74v-33zM191 -4c-40 0 -68 28 -68 69c0 40 28 68 68 68
s68 -28 68 -68c0 -41 -28 -69 -68 -69z" />
    <glyph glyph-name="questiondown" unicode="&#xbf;" horiz-adv-x="432" 
d="M242 343c-40 0 -68 28 -68 69c0 40 28 68 68 68s68 -28 68 -68c0 -41 -28 -69 -68 -69zM175 293l125 -11v-25c-3 -93 -55 -134 -89 -161c-29 -26 -42 -42 -42 -70c0 -41 26 -65 60 -65c37 0 61 25 63 66l124 -35c-16 -92 -93 -153 -180 -153c-132 0 -194 90 -194 180
c0 92 49 125 86 160c25 21 46 45 46 81c1 15 1 20 1 33z" />
    <glyph glyph-name="quotedbl" unicode="&#x22;" horiz-adv-x="390" 
d="M27 392l-15 249l125 5l-12 -254h-98zM244 392l-15 249l125 5l-12 -254h-98z" />
    <glyph glyph-name="quotesingle" unicode="'" horiz-adv-x="173" 
d="M37 392l-15 249l125 5l-12 -254h-98z" />
    <glyph glyph-name="semicolon" unicode=";" horiz-adv-x="240" 
d="M135 280c-40 0 -68 28 -68 69c0 40 28 68 68 68s68 -28 68 -68c0 -41 -28 -69 -68 -69zM131 -130l-113 14l54 235l90 -7z" />
    <glyph glyph-name="slash" unicode="/" horiz-adv-x="305" 
d="M12 0l192 658h121l-192 -658h-121z" />
    <glyph glyph-name="underscore" unicode="_" horiz-adv-x="707" 
d="M76 -135l10 117h546l-11 -117h-545z" />
    <glyph glyph-name="braceleft" unicode="{" horiz-adv-x="358" 
d="M246 -138c-73 0 -131 37 -131 112v124c0 66 -14 117 -85 120v128c72 3 85 44 85 120v122c0 71 60 112 131 113c26 0 46 -2 73 -8l-8 -124c-9 0 -18 -1 -25 -3c-27 -6 -41 -27 -41 -57v-132c0 -56 -41 -93 -90 -96v-4c49 -3 88 -45 88 -94v-133c0 -30 13 -51 43 -57
c8 -2 16 -3 25 -3l8 -120c-23 -5 -46 -8 -73 -8z" />
    <glyph glyph-name="braceright" unicode="}" horiz-adv-x="358" 
d="M112 -138c-27 0 -50 2 -73 8l8 120c9 0 16 1 25 2c30 7 43 28 43 58v133c0 49 39 91 88 94v4c-49 3 -91 40 -91 96v132c0 29 -13 51 -40 57c-8 2 -16 3 -25 2l-8 124c27 7 47 9 73 9c71 -1 131 -42 131 -113v-122c0 -77 13 -117 85 -120v-128c-72 -3 -85 -54 -85 -120
v-124c0 -75 -58 -112 -131 -112z" />
    <glyph glyph-name="bracketleft" unicode="[" horiz-adv-x="313" 
d="M72 -140v842h196v-125l-71 -5v-583l71 -4v-125h-196z" />
    <glyph glyph-name="bracketright" unicode="]" horiz-adv-x="313" 
d="M46 -141v125l71 4v584l-71 5v125h196v-843h-196z" />
    <glyph glyph-name="parenleft" unicode="(" horiz-adv-x="283" 
d="M164 -128c-85 121 -126 272 -126 417c0 152 42 301 129 422l103 -68c-69 -98 -111 -230 -111 -354c0 -120 42 -252 107 -349z" />
    <glyph glyph-name="parenright" unicode=")" horiz-adv-x="283" 
d="M119 -128l-102 68c66 97 108 229 108 349c0 124 -43 256 -111 354l102 68c87 -121 130 -270 130 -422c0 -145 -42 -296 -127 -417z" />
    <glyph glyph-name="emdash" unicode="&#x2014;" horiz-adv-x="632" 
d="M72 187l10 117h479l-11 -117h-478z" />
    <glyph glyph-name="endash" unicode="&#x2013;" horiz-adv-x="552" 
d="M72 187l10 117h398l-10 -117h-398z" />
    <glyph glyph-name="uni2015" unicode="&#x2015;" horiz-adv-x="540" 
d="M-3 251v80h546v-80h-546z" />
    <glyph glyph-name="hyphen" unicode="-" horiz-adv-x="407" 
d="M72 189l25 117h238l-25 -117h-238z" />
    <glyph glyph-name="quotedblleft" unicode="&#x201c;" horiz-adv-x="430" 
d="M150 377l-121 15l48 248l96 -8zM366 377l-121 15l48 248l96 -8z" />
    <glyph glyph-name="quotedblright" unicode="&#x201d;" horiz-adv-x="430" 
d="M133 376l-96 9l22 254l121 -14zM350 376l-96 9l22 254l121 -14z" />
    <glyph glyph-name="quoteleft" unicode="&#x2018;" horiz-adv-x="213" 
d="M151 377l-121 15l48 248l96 -8z" />
    <glyph glyph-name="quoteright" unicode="&#x2019;" horiz-adv-x="212" 
d="M135 384l-96 9l22 254l121 -14z" />
    <glyph glyph-name="colon_parenleft.liga" horiz-adv-x="594" 
d="M451 -128c-85 121 -126 272 -126 417c0 152 42 301 129 422l103 -68c-69 -98 -111 -230 -111 -354c0 -120 42 -252 107 -349zM115 344c-40 0 -68 28 -68 69c0 40 28 68 68 68s68 -28 68 -68c0 -41 -28 -69 -68 -69zM117 52c-40 0 -68 28 -68 69c0 40 28 68 68 68
s68 -28 68 -68c0 -41 -28 -69 -68 -69z" />
    <glyph glyph-name="colon_parenright.liga" horiz-adv-x="575" 
d="M411 -128l-102 68c66 97 108 229 108 349c0 124 -43 256 -111 354l102 68c87 -121 130 -270 130 -422c0 -145 -42 -296 -127 -417zM115 350c-40 0 -68 28 -68 69c0 40 28 68 68 68s68 -28 68 -68c0 -41 -28 -69 -68 -69zM117 58c-40 0 -68 28 -68 69c0 40 28 68 68 68
s68 -28 68 -68c0 -41 -28 -69 -68 -69z" />
    <glyph glyph-name="exclam_question.liga" horiz-adv-x="650" 
d="M409 182l-123 27c1 9 2 16 4 26c14 87 70 117 107 140c32 21 47 37 51 64c5 41 -18 67 -53 72c-36 4 -63 -16 -69 -57l-119 50c27 90 112 140 198 129c130 -16 181 -115 169 -204c-11 -91 -65 -117 -106 -146c-27 -19 -50 -36 -55 -68c-2 -14 -2 -19 -4 -33zM99 186
l-62 422l133 11l13 -427zM325 0c-40 5 -64 36 -59 77c5 39 37 64 76 59c40 -6 64 -37 59 -77s-37 -64 -76 -59zM159 -6c-40 -3 -70 22 -73 63c-4 40 22 70 62 74c40 3 70 -23 73 -63c3 -41 -22 -71 -62 -74z" />
    <glyph glyph-name="semicolon_parenright.liga" horiz-adv-x="570" 
d="M406 -128l-102 68c66 97 108 229 108 349c0 124 -43 256 -111 354l102 68c87 -121 130 -270 130 -422c0 -145 -42 -296 -127 -417zM135 365c-40 0 -68 28 -68 69c0 40 28 68 68 68s68 -28 68 -68c0 -41 -28 -69 -68 -69zM131 -45l-113 14l54 235l90 -7z" />
    <glyph glyph-name="space" unicode=" " horiz-adv-x="264" 
 />
    <glyph glyph-name="cent" unicode="&#xa2;" horiz-adv-x="456" 
d="M237 164c35 0 62 24 71 55l101 -65c-27 -52 -74 -86 -124 -99h4l5 -87l-113 2l8 85c-96 22 -151 112 -151 215v8c0 103 55 193 151 215l-7 86l111 2l-5 -87h-6c55 -14 103 -51 129 -104l-102 -63c-10 32 -36 57 -72 57c-53 0 -80 -48 -80 -106v-8c0 -58 27 -106 80 -106z
" />
    <glyph glyph-name="dollar" unicode="$" horiz-adv-x="473" 
d="M417 166c0 -79 -48 -141 -123 -163l5 -81h-124l5 80c-69 19 -121 72 -135 147l121 33c6 -36 33 -60 64 -60s55 18 54 50c-3 80 -238 60 -238 230c0 76 56 139 133 157l-4 80h123l-6 -84c66 -22 116 -75 124 -138l-113 -30c-12 38 -41 55 -68 55c-33 0 -54 -22 -50 -47
c11 -70 232 -45 232 -229z" />
    <glyph glyph-name="Euro" unicode="&#x20ac;" horiz-adv-x="551" 
d="M421 186l105 -38c-35 -104 -120 -153 -211 -153c-106 0 -205 66 -234 196h-55v61h47v20v16v16h-47v61h55c27 132 127 200 234 200c89 0 172 -53 208 -146l-104 -45c-18 51 -46 84 -108 84c-44 0 -88 -25 -106 -93h116v-61h-125v-16v-16c0 -7 0 -14 1 -20h124v-61h-115
c19 -65 62 -89 104 -89c63 0 91 32 111 84z" />
    <glyph glyph-name="sterling" unicode="&#xa3;" horiz-adv-x="457" 
d="M397 128l37 -97c-39 -27 -70 -35 -103 -35c-66 0 -89 39 -151 38c-26 0 -57 -9 -89 -34l-67 85c64 54 88 106 90 158v14h-80v101h48c-11 23 -20 50 -20 89c0 102 83 176 185 176c81 0 151 -51 176 -123l-95 -46c-3 32 -38 65 -81 65c-42 0 -77 -32 -77 -77
c0 -28 13 -55 27 -84h123v-101h-95c-1 -50 -24 -90 -47 -116v-1c57 7 94 -34 153 -34c18 0 47 8 66 22z" />
    <glyph glyph-name="yen" unicode="&#xa5;" horiz-adv-x="473" 
d="M472 557l-146 -284h79v-77h-104v-48h104v-69h-104v-79h-125v79h-107v69h107v48h-107v77h82l-145 284l129 8l103 -226h1l104 226z" />
    <glyph glyph-name="plus" unicode="+" horiz-adv-x="559" 
d="M498 330v-116h-155v-166h-125v166h-156v116h156v166h125v-166h155z" />
    <glyph glyph-name="minus" unicode="&#x2212;" horiz-adv-x="531" 
d="M70 202v113h392v-113h-392z" />
    <glyph glyph-name="multiply" unicode="&#xd7;" horiz-adv-x="574" 
d="M513 413l-145 -147l144 -147l-82 -81l-143 145l-142 -143l-83 78l145 147l-145 146l83 81l143 -145l142 144z" />
    <glyph glyph-name="divide" unicode="&#xf7;" horiz-adv-x="531" 
d="M261 365c-40 0 -68 28 -68 69c0 40 28 68 68 68s68 -28 68 -68c0 -41 -28 -69 -68 -69zM62 222v101h408v-101h-408zM261 42c-40 0 -68 28 -68 69c0 40 28 68 68 68s68 -28 68 -68c0 -41 -28 -69 -68 -69z" />
    <glyph glyph-name="equal" unicode="=" horiz-adv-x="532" 
d="M62 307v113h392v-113h-392zM62 97v113h392v-113h-392z" />
    <glyph glyph-name="notequal" unicode="&#x2260;" horiz-adv-x="533" 
d="M446 307h-127l-28 -97h155v-113h-187l-26 -89h-115l26 89h-90v113h123l28 97h-151v113h184l32 109h113l-31 -109h94v-113z" />
    <glyph glyph-name="greater" unicode="&#x3e;" horiz-adv-x="478" 
d="M150 -35l-88 80l211 243l-211 242l87 80l272 -322z" />
    <glyph glyph-name="less" unicode="&#x3c;" horiz-adv-x="478" 
d="M329 -35l-271 323l271 322l88 -80l-211 -242l210 -243z" />
    <glyph glyph-name="asciitilde" unicode="~" horiz-adv-x="538" 
d="M151 167c-38 21 -75 42 -113 62c15 38 60 119 132 121c64 1 110 -46 154 -43c23 1 48 16 63 55l114 -61c-15 -44 -57 -120 -126 -122c-61 -2 -120 45 -163 43c-26 -1 -45 -21 -61 -55z" />
    <glyph glyph-name="infinity" unicode="&#x221e;" horiz-adv-x="990" 
d="M712 504c130 0 229 -94 229 -228c0 -127 -98 -228 -229 -228c-99 0 -163 60 -216 130c-52 -70 -116 -130 -218 -130c-132 0 -229 101 -229 228c0 138 99 228 229 228c100 0 164 -61 218 -131c52 70 116 131 216 131zM278 162c63 0 107 51 150 113
c-44 63 -88 114 -150 114c-66 0 -120 -49 -120 -113s53 -114 120 -114zM711 162c67 0 120 49 120 114c0 61 -54 113 -120 113c-63 0 -106 -50 -148 -112c43 -63 87 -115 148 -115z" />
    <glyph glyph-name="percent" unicode="%" horiz-adv-x="584" 
d="M56 0l357 560h117l-357 -560h-117zM116 338c-54 0 -92 39 -92 93c0 53 38 90 92 90c53 0 91 -37 91 -90c0 -54 -38 -93 -91 -93zM465 32c-54 0 -92 39 -92 93c0 53 38 90 92 90c53 0 91 -37 91 -90c0 -54 -38 -93 -91 -93z" />
    <glyph glyph-name="at" unicode="@" horiz-adv-x="927" 
d="M874 235v-5c-3 -136 -55 -251 -181 -251c-60 0 -131 14 -164 111c-20 -41 -52 -83 -100 -90c-102 -16 -177 80 -177 213c0 131 80 249 184 229c39 -8 65 -38 82 -72v77l117 -9v-291c1 -37 13 -73 57 -73c70 0 83 108 84 162c-2 174 -125 314 -310 314
c-173 0 -317 -142 -317 -320c0 -180 145 -321 317 -321c67 -2 137 13 179 31l22 -90c-63 -29 -149 -40 -200 -38c-226 0 -413 183 -413 416c0 232 186 417 412 417c237 0 403 -180 408 -405v-5zM457 106c23 1 42 15 61 36v153c-18 22 -38 37 -60 40c-46 4 -77 -49 -77 -124
c0 -63 27 -107 76 -105z" />
    <glyph glyph-name="ampersand" unicode="&#x26;" horiz-adv-x="560" 
d="M524 263c-23 -42 -48 -90 -78 -134l67 -129h-133l-19 36c-36 -28 -79 -46 -128 -46c-114 0 -197 81 -197 180c0 91 52 168 157 185l-107 204h358v-117h-162l104 -199c13 22 25 46 37 71zM265 116c15 5 28 14 41 24l-57 110c-75 3 -99 -56 -89 -93c11 -39 58 -58 105 -41z
" />
    <glyph glyph-name="copyright" unicode="&#xa9;" horiz-adv-x="965" 
d="M482 -113c-216 0 -392 175 -392 393s176 394 392 394c214 0 394 -176 394 -394s-180 -393 -394 -393zM482 -4c159 0 286 127 286 284c0 158 -127 285 -286 285c-157 0 -287 -127 -287 -285c0 -157 130 -284 287 -284zM483 78c-110 0 -193 91 -193 201
c0 113 83 201 193 201c58 0 110 -25 148 -67l-77 -81c-15 18 -38 33 -71 33c-44 0 -85 -37 -85 -86c0 -48 41 -89 85 -89c26 0 50 15 65 34l80 -81c-38 -40 -88 -65 -145 -65z" />
    <glyph glyph-name="registered" unicode="&#xae;" horiz-adv-x="416" 
d="M207 295c-104 0 -188 86 -188 190s84 189 188 189c105 0 190 -85 190 -189s-85 -190 -190 -190zM207 348c76 0 137 62 137 137s-61 136 -137 136c-74 0 -135 -61 -135 -136s61 -137 135 -137zM155 404v161l51 4c33 1 61 -18 61 -58c0 -23 -9 -42 -27 -51l34 -56h-47
l-28 47h-4v-47h-40zM193 486h17c9 1 17 8 17 23c0 9 -3 17 -11 21c-6 3 -14 2 -23 0v-44z" />
    <glyph glyph-name="degree" unicode="&#xb0;" horiz-adv-x="359" 
d="M179 374c-73 0 -131 60 -131 131c0 73 58 131 131 131s132 -58 132 -131c0 -71 -59 -131 -132 -131zM178 457c28 0 46 20 46 46c0 27 -18 48 -46 48c-26 0 -46 -21 -46 -48c0 -26 20 -46 46 -46z" />
    <glyph glyph-name="bar" unicode="|" horiz-adv-x="310" 
d="M92 -136v840l125 5v-845h-125z" />
    <glyph glyph-name="uni2116" unicode="&#x2116;" horiz-adv-x="919" 
d="M374 228v332h125v-560h-113l-199 329v-329h-125v556l113 7zM714 291c-73 0 -131 60 -131 131c0 73 58 131 131 131s132 -58 132 -131c0 -71 -59 -131 -132 -131zM713 468c-26 0 -46 -21 -46 -48c0 -26 20 -46 46 -46c28 0 46 20 46 46c0 27 -18 48 -46 48zM589 102v96
h251l-1 -96h-250z" />
    <glyph glyph-name="asciicircum" unicode="^" horiz-adv-x="537" 
d="M471 458l-78 -78l-126 132l-123 -129l-78 78l202 193z" />
    <glyph glyph-name="uni0308" unicode="&#x308;" 
d="M-65 546c-34 0 -57 24 -57 59s23 58 57 58c36 0 60 -23 60 -58s-24 -59 -60 -59zM-249 545c-34 0 -57 24 -57 59s23 58 57 58c36 0 60 -23 60 -58s-24 -59 -60 -59z" />
    <glyph glyph-name="uni0307" unicode="&#x307;" 
d="M-70 551c-42 0 -71 28 -71 72c0 41 29 71 71 71s72 -30 72 -71c0 -44 -30 -72 -72 -72z" />
    <glyph glyph-name="gravecomb" unicode="&#x300;" 
d="M-37 519l-198 93l58 104l179 -120z" />
    <glyph glyph-name="acutecomb" unicode="&#x301;" 
d="M-200 519l-38 78l179 120l57 -104z" />
    <glyph glyph-name="uni030B" unicode="&#x30b;" 
d="M-183 515l-97 -1l-2 214l115 -6zM-25 512l-96 2l8 210l115 -6z" />
    <glyph glyph-name="caroncomb.alt" 
d="M-21 235l-88 2l-3 211l115 -6z" />
    <glyph glyph-name="uni0302" unicode="&#x302;" 
d="M2 593l-61 -67l-77 64l-74 -65l-63 64l137 120z" />
    <glyph glyph-name="uni030C" unicode="&#x30c;" 
d="M-59 706l61 -67l-138 -116l-137 120l63 64l74 -65z" />
    <glyph glyph-name="uni0306" unicode="&#x306;" 
d="M-140 533c-61 0 -113 34 -142 83l66 57c14 -18 40 -45 76 -45c41 0 62 25 76 45l67 -57c-29 -50 -81 -83 -143 -83z" />
    <glyph glyph-name="uni030A" unicode="&#x30a;" 
d="M-103 511c-60 0 -105 49 -105 106c0 58 45 105 105 105c58 0 106 -47 106 -105c0 -57 -48 -106 -106 -106zM-105 582c19 0 34 14 34 34c0 19 -15 34 -34 34c-18 0 -32 -15 -32 -34c0 -20 14 -34 32 -34z" />
    <glyph glyph-name="tildecomb" unicode="&#x303;" 
d="M-226 543l-85 45c8 24 39 90 94 90c40 0 72 -31 97 -31c18 0 26 17 36 41l86 -43c-8 -23 -37 -93 -96 -93c-46 0 -73 32 -98 32c-16 0 -26 -21 -34 -41z" />
    <glyph glyph-name="uni0304" unicode="&#x304;" 
d="M-249 545v96h251l-1 -96h-250z" />
    <glyph glyph-name="uni0312" unicode="&#x312;" 
d="M-114 709l117 -12l-37 -173l-94 7z" />
    <glyph glyph-name="uni0326" unicode="&#x326;" 
d="M-14 -219l-117 12l36 171l95 -7z" />
    <glyph glyph-name="uni0327" unicode="&#x327;" 
d="M-101 -41c56 13 103 -23 103 -76c0 -61 -48 -97 -109 -97c-46 0 -77 21 -92 36l38 55c7 -7 22 -18 48 -18c16 0 34 9 34 28c0 25 -26 32 -50 31c-16 -1 -27 -1 -40 -2v86h76z" />
    <glyph glyph-name="uni0328" unicode="&#x328;" 
d="M-259 -91c10 44 45 80 97 100l84 -8c-55 -28 -90 -50 -107 -73c-28 -40 17 -81 56 -33l47 -52c-75 -89 -201 -36 -177 66z" />
    <glyph glyph-name="uni0335" unicode="&#x335;" 
d="M-220 208v80h246l-1 -80h-245z" />
    <glyph glyph-name="uni0337" unicode="&#x337;" 
d="M-406 3l-39 41l407 410l40 -40z" />
    <glyph glyph-name="uni0338" unicode="&#x338;" 
d="M-491 1l-63 64l487 504l64 -64z" />
    <glyph glyph-name="uni0307.alt" 
d="M-58 578c-34 0 -57 24 -57 59s23 58 57 58c36 0 60 -23 60 -58s-24 -59 -60 -59z" />
    <glyph glyph-name="_f.f.alt" horiz-adv-x="266" 
d="M264 503c-34 0 -56 -19 -58 -54v-21h82v-105h-82v-323h-124l-1 323h-48v105h48v22c0 91 54 151 151 151c46 0 93 -16 123 -40l-36 -69c-12 5 -30 11 -55 11z" />
    </font>
</defs>
</svg>
