<?xml version="1.0" standalone="no"?>
<!DOCTYPE svg PUBLIC "-//W3C//DTD SVG 1.1//EN" "http://www.w3.org/Graphics/SVG/1.1/DTD/svg11.dtd" >
<svg xmlns="http://www.w3.org/2000/svg" xmlns:xlink="http://www.w3.org/1999/xlink" version="1.1">
<metadata>
Created by FontForge 20150824 at Mon Aug 15 22:24:25 2016
 By Everything Fonts
Copyright \(c\) 2015 by Eric Lobdell. All rights reserved.
</metadata>
<defs>
<font id="Affogato-Medium" horiz-adv-x="0" >
  <font-face 
    font-family="Affogato Medium"
    font-weight="500"
    font-stretch="normal"
    units-per-em="880"
    panose-1="0 0 6 0 0 0 0 0 0 0"
    ascent="704"
    descent="-176"
    x-height="440"
    cap-height="563"
    bbox="-533 -217 964 841"
    underline-thickness="50"
    underline-position="-100"
    unicode-range="U+0020-FB02"
  />
<missing-glyph horiz-adv-x="503" 
d="M412 800v-1005h-319v1005h319zM335 733h-166v-34h65v-37h-66v-33h167v33h-67v37h67v34zM268 603h-100v-105h167v35h-67v70zM234 569v-36h-33v36h33zM335 471h-167v-33h66v-37h-66v-33h100v70h67v33zM335 411h-34v-66h-133v-34h167v100zM335 288h-101v-56h34v23h33v-47
h-100v80h-33v-113h167v113zM335 115h-167v-114h167v114zM301 81v-47h-100v47h100zM335 -22h-167v-33h70l-70 -47v-34h167v34h-103l71 47h32v33z" />
    <glyph glyph-name="fi" unicode="fi" horiz-adv-x="518" 
d="M92 467c0 87 60 135 136 135c25 0 56 -6 71 -13l-19 -66c-11 3 -23 7 -44 6c-31 -2 -59 -26 -59 -67v-37h87v-73h-87v-352h-85v352h-53v73h53v42zM399 485c-31 0 -53 22 -53 55c0 31 22 53 53 53c33 0 55 -22 55 -53c0 -33 -22 -55 -55 -55zM358 0v431l85 5v-436h-85z
" />
    <glyph glyph-name="fl" unicode="fl" horiz-adv-x="550" 
d="M92 467c0 87 60 135 136 135c25 0 56 -6 71 -13l-19 -66c-11 3 -23 7 -44 6c-31 -2 -59 -26 -59 -67v-37h87v-73h-87v-352h-85v352h-53v73h53v42zM497 83c9 -1 18 -1 27 -1v-82h-34c-92 0 -135 40 -135 148l1 439l85 5l-1 -420c0 -54 8 -87 57 -89z" />
    <glyph glyph-name="f_h.liga" unicode="fh" horiz-adv-x="786" 
d="M92 467c0 87 60 135 136 135c25 0 56 -6 71 -13l-19 -66c-11 3 -23 7 -44 6c-31 -2 -59 -26 -59 -67v-37h87v-73h-87v-352h-85v352h-53v73h53v42zM558 445c92 10 158 -59 158 -155v-290h-85v267c0 67 -39 111 -100 100c-32 -6 -68 -36 -88 -69v-298h-85v589l85 5v-223
c27 37 68 68 115 74z" />
    <glyph glyph-name="f_j.liga" unicode="fj" horiz-adv-x="510" 
d="M395 495c-31 0 -53 22 -53 55c0 31 22 53 53 53c33 0 55 -22 55 -53c0 -33 -22 -55 -55 -55zM264 352h-87v-352h-85v352h-53v73h53v42c0 87 60 135 136 135c25 0 56 -6 71 -13l-19 -66c-11 3 -23 7 -44 6c-31 -2 -59 -26 -59 -67v-37h87v-73zM353 -33v463l85 5v-468
c0 -122 -50 -174 -131 -174c-33 0 -64 10 -80 22l21 71c10 -4 23 -8 43 -8c36 1 62 25 62 89z" />
    <glyph glyph-name="f_t.liga" unicode="ft" horiz-adv-x="580" 
d="M92 467c0 87 60 135 136 135c25 0 56 -6 71 -13l-19 -66c-11 3 -23 7 -44 6c-31 -2 -59 -26 -59 -67v-37h87v-73h-87v-352h-85v352h-53v73h53v42zM509 83c10 -1 19 -1 28 -1v-81c-13 -1 -23 -2 -34 -2c-91 0 -135 41 -135 149v202h-55v82h56v127l85 4v-131h79v-82h-80
v-178c0 -55 8 -88 56 -89z" />
    <glyph glyph-name="q_j.liga" unicode="qj" horiz-adv-x="719" 
d="M580 495c-31 0 -53 22 -53 55c0 31 22 53 53 53c33 0 55 -22 55 -53c0 -33 -22 -55 -55 -55zM321 394l3 53l82 -5v-642l-85 5v270c-25 -34 -57 -68 -104 -75c-106 -17 -181 78 -181 218c0 132 78 250 192 225c44 -8 71 -43 93 -77v28zM538 -33v463l85 5v-468
c0 -122 -50 -174 -131 -174c-33 0 -64 10 -80 22l21 71c10 -4 23 -8 43 -8c36 1 62 25 62 89zM230 73c34 3 61 30 91 68v156c-25 36 -52 65 -84 72c-68 12 -114 -58 -114 -152c0 -92 42 -148 107 -144z" />
    <glyph glyph-name=".notdef" horiz-adv-x="503" 
d="M412 800v-1005h-319v1005h319zM335 733h-166v-34h65v-37h-66v-33h167v33h-67v37h67v34zM268 603h-100v-105h167v35h-67v70zM234 569v-36h-33v36h33zM335 471h-167v-33h66v-37h-66v-33h100v70h67v33zM335 411h-34v-66h-133v-34h167v100zM335 288h-101v-56h34v23h33v-47
h-100v80h-33v-113h167v113zM335 115h-167v-114h167v114zM301 81v-47h-100v47h100zM335 -22h-167v-33h70l-70 -47v-34h167v34h-103l71 47h32v33z" />
    <glyph glyph-name="A" unicode="A" horiz-adv-x="516" 
d="M400 0l-32 108h-219l-32 -108h-85l173 556l106 6l174 -562h-85zM172 185h173l-86 288z" />
    <glyph glyph-name="Aacute" unicode="&#xc1;" horiz-adv-x="516" 
d="M423 744l-181 -99l-28 53l167 118zM400 0l-32 108h-219l-32 -108h-85l173 556l106 6l174 -562h-85zM172 185h173l-86 288z" />
    <glyph glyph-name="Abreve" unicode="&#x102;" horiz-adv-x="516" 
d="M258 658c-55 0 -100 32 -127 74l48 41c12 -18 39 -47 79 -47c41 0 65 27 79 47l49 -41c-28 -43 -72 -74 -128 -74zM400 0l-32 108h-219l-32 -108h-85l173 556l106 6l174 -562h-85zM172 185h173l-86 288z" />
    <glyph glyph-name="uni01CD" unicode="&#x1cd;" horiz-adv-x="516" 
d="M381 754l-124 -110l-123 113l45 45l78 -73l80 72zM400 0l-32 108h-219l-32 -108h-85l173 556l106 6l174 -562h-85zM172 185h173l-86 288z" />
    <glyph glyph-name="Acircumflex" unicode="&#xc2;" horiz-adv-x="516" 
d="M257 718l-78 -72l-45 45l123 113l124 -111l-44 -47zM400 0l-32 108h-219l-32 -108h-85l173 556l106 6l174 -562h-85zM172 185h173l-86 288z" />
    <glyph glyph-name="Adieresis" unicode="&#xc4;" horiz-adv-x="516" 
d="M166 669c-28 0 -46 20 -46 48s18 46 46 46s48 -18 48 -46s-20 -48 -48 -48zM335 669c-28 0 -46 20 -46 48s18 46 46 46s48 -18 48 -46s-20 -48 -48 -48zM400 0l-32 108h-219l-32 -108h-85l173 556l106 6l174 -562h-85zM172 185h173l-86 288z" />
    <glyph glyph-name="Agrave" unicode="&#xc0;" horiz-adv-x="516" 
d="M298 698l-29 -54l-182 99l43 73zM400 0l-32 108h-219l-32 -108h-85l173 556l106 6l174 -562h-85zM172 185h173l-86 288z" />
    <glyph glyph-name="Amacron" unicode="&#x100;" horiz-adv-x="516" 
d="M370 738v-67h-224v67h224zM400 0l-32 108h-219l-32 -108h-85l173 556l106 6l174 -562h-85zM172 185h173l-86 288z" />
    <glyph glyph-name="Aogonek" unicode="&#x104;" horiz-adv-x="516" 
d="M383 -78c-38 -51 16 -96 65 -48l32 -38c-86 -82 -195 -8 -147 85c17 35 42 59 77 79h-10l-32 108h-219l-32 -108h-85l173 556l106 6l174 -562c-46 -26 -81 -50 -102 -78zM172 185h173l-86 288z" />
    <glyph glyph-name="Aring" unicode="&#xc5;" horiz-adv-x="516" 
d="M258 637c-50 0 -88 41 -88 88c0 49 38 88 88 88c48 0 87 -39 87 -88c0 -47 -39 -88 -87 -88zM257 761c-20 0 -35 -16 -35 -36s15 -35 35 -35s34 15 34 35s-14 36 -34 36zM400 0l-32 108h-219l-32 -108h-85l173 556l106 6l174 -562h-85zM172 185h173l-86 288z" />
    <glyph glyph-name="Atilde" unicode="&#xc3;" horiz-adv-x="516" 
d="M214 701c-16 0 -25 -19 -33 -39l-59 31c8 24 32 75 78 75c38 0 70 -35 98 -35c19 0 26 13 36 37l61 -29c-8 -21 -31 -77 -82 -77c-43 1 -71 37 -99 37zM400 0l-32 108h-219l-32 -108h-85l173 556l106 6l174 -562h-85zM172 185h173l-86 288z" />
    <glyph glyph-name="AE" unicode="&#xc6;" horiz-adv-x="684" 
d="M633 481h-253v-172h183v-80h-183v-149h253v-80h-340v111h-162l-55 -111h-90l281 560h366v-79zM165 181h128v261z" />
    <glyph glyph-name="B" unicode="B" horiz-adv-x="523" 
d="M82 0v557c36 2 164 8 190 8c105 0 159 -64 159 -149c0 -60 -26 -95 -53 -114c53 -22 88 -75 88 -142c0 -109 -88 -160 -165 -160h-219zM167 323h98c53 0 80 39 80 84s-36 78 -84 78c-33 0 -61 -1 -94 -2v-160zM167 81h116c53 0 94 34 94 88c0 49 -33 84 -84 84l-126 -1
v-171z" />
    <glyph glyph-name="C" unicode="C" horiz-adv-x="542" 
d="M288 -5c-118 0 -234 92 -234 276v18c0 184 116 276 234 276c87 0 162 -50 198 -133l-75 -32c-25 51 -69 81 -123 81c-72 0 -150 -54 -150 -192v-18c0 -138 78 -192 149 -192c56 0 102 32 124 86l76 -33c-35 -89 -111 -137 -199 -137z" />
    <glyph glyph-name="Cacute" unicode="&#x106;" horiz-adv-x="542" 
d="M271 645l-28 53l167 118l42 -72zM288 -5c-118 0 -234 92 -234 276v18c0 184 116 276 234 276c87 0 162 -50 198 -133l-75 -32c-25 51 -69 81 -123 81c-72 0 -150 -54 -150 -192v-18c0 -138 78 -192 149 -192c56 0 102 32 124 86l76 -33c-35 -89 -111 -137 -199 -137z" />
    <glyph glyph-name="Ccaron" unicode="&#x10c;" horiz-adv-x="542" 
d="M410 754l-124 -110l-123 113l45 45l78 -73l80 72zM411 165l76 -33c-35 -89 -111 -137 -199 -137c-118 0 -234 92 -234 276v18c0 184 116 276 234 276c87 0 162 -50 198 -133l-75 -32c-25 51 -69 81 -123 81c-72 0 -150 -54 -150 -192v-18c0 -138 78 -192 149 -192
c56 0 102 32 124 86z" />
    <glyph glyph-name="Ccedilla" unicode="&#xc7;" horiz-adv-x="542" 
d="M487 132c-34 -86 -106 -134 -191 -137l-5 -34c59 13 106 -23 106 -75c0 -59 -45 -92 -101 -92c-49 0 -79 26 -89 41l30 36c7 -8 24 -24 56 -24c24 0 46 14 46 41c0 26 -24 41 -59 41c-15 -1 -26 -1 -39 -2l1 73c-100 21 -188 111 -188 271v18c0 184 116 276 234 276
c87 0 162 -50 198 -133l-75 -32c-25 51 -69 81 -123 81c-72 0 -150 -54 -150 -192v-18c0 -138 78 -192 149 -192c56 0 102 32 124 86z" />
    <glyph glyph-name="Cdotaccent" unicode="&#x10a;" horiz-adv-x="542" 
d="M286 641c-31 0 -53 22 -53 55c0 31 22 53 53 53c33 0 55 -22 55 -53c0 -33 -22 -55 -55 -55zM288 -5c-118 0 -234 92 -234 276v18c0 184 116 276 234 276c87 0 162 -50 198 -133l-75 -32c-25 51 -69 81 -123 81c-72 0 -150 -54 -150 -192v-18c0 -138 78 -192 149 -192
c56 0 102 32 124 86l76 -33c-35 -89 -111 -137 -199 -137z" />
    <glyph glyph-name="D" unicode="D" horiz-adv-x="542" 
d="M82 0v557c57 4 111 6 170 8c110 0 233 -81 233 -289c0 -231 -156 -276 -244 -276h-159zM167 85h73c96 0 159 62 159 189c0 132 -66 206 -153 206c-29 -1 -52 -1 -79 -3v-392z" />
    <glyph glyph-name="Eth" unicode="&#xd0;" horiz-adv-x="542" 
d="M132 671v67h224v-67h-224zM82 0v557c57 4 111 6 170 8c110 0 233 -81 233 -289c0 -231 -156 -276 -244 -276h-159zM167 85h73c96 0 159 62 159 189c0 132 -66 206 -153 206c-29 -1 -52 -1 -79 -3v-392z" />
    <glyph glyph-name="Dcaron" unicode="&#x10e;" horiz-adv-x="542" 
d="M367 754l-124 -110l-123 113l45 45l78 -73l80 72zM252 565c110 0 233 -81 233 -289c0 -231 -156 -276 -244 -276h-159v557c57 4 111 6 170 8zM240 85c96 0 159 62 159 189c0 132 -66 206 -153 206c-29 -1 -52 -1 -79 -3v-392h73z" />
    <glyph glyph-name="Dcroat" unicode="&#x110;" horiz-adv-x="542" 
d="M132 671v67h224v-67h-224zM82 0v557c57 4 111 6 170 8c110 0 233 -81 233 -289c0 -231 -156 -276 -244 -276h-159zM167 85h73c96 0 159 62 159 189c0 132 -66 206 -153 206c-29 -1 -52 -1 -79 -3v-392z" />
    <glyph glyph-name="E" unicode="E" horiz-adv-x="469" 
d="M418 481h-253v-172h183v-80h-183v-149h253v-80h-336v560h336v-79z" />
    <glyph glyph-name="Eacute" unicode="&#xc9;" horiz-adv-x="469" 
d="M413 749l-181 -99l-28 53l167 118zM418 481h-253v-172h183v-80h-183v-149h253v-80h-336v560h336v-79z" />
    <glyph glyph-name="Ecaron" unicode="&#x11a;" horiz-adv-x="469" 
d="M371 759l-124 -110l-123 113l45 45l78 -73l80 72zM418 481h-253v-172h183v-80h-183v-149h253v-80h-336v560h336v-79z" />
    <glyph glyph-name="Ecircumflex" unicode="&#xca;" horiz-adv-x="469" 
d="M247 723l-78 -72l-45 45l123 113l124 -111l-44 -47zM418 481h-253v-172h183v-80h-183v-149h253v-80h-336v560h336v-79z" />
    <glyph glyph-name="Edieresis" unicode="&#xcb;" horiz-adv-x="469" 
d="M156 674c-28 0 -46 20 -46 48s18 46 46 46s48 -18 48 -46s-20 -48 -48 -48zM325 674c-28 0 -46 20 -46 48s18 46 46 46s48 -18 48 -46s-20 -48 -48 -48zM418 481h-253v-172h183v-80h-183v-149h253v-80h-336v560h336v-79z" />
    <glyph glyph-name="Edotaccent" unicode="&#x116;" horiz-adv-x="469" 
d="M247 646c-31 0 -53 22 -53 55c0 31 22 53 53 53c33 0 55 -22 55 -53c0 -33 -22 -55 -55 -55zM418 481h-253v-172h183v-80h-183v-149h253v-80h-336v560h336v-79z" />
    <glyph glyph-name="Egrave" unicode="&#xc8;" horiz-adv-x="469" 
d="M288 703l-29 -54l-182 99l43 73zM418 481h-253v-172h183v-80h-183v-149h253v-80h-336v560h336v-79z" />
    <glyph glyph-name="Emacron" unicode="&#x112;" horiz-adv-x="469" 
d="M360 743v-67h-224v67h224zM418 481h-253v-172h183v-80h-183v-149h253v-80h-336v560h336v-79z" />
    <glyph glyph-name="Eogonek" unicode="&#x118;" horiz-adv-x="469" 
d="M418 481h-253v-172h183v-80h-183v-149h253v-80c-46 -26 -81 -50 -102 -78c-38 -51 16 -96 65 -48l32 -38c-86 -82 -195 -8 -147 85c17 35 42 59 77 79h-261v560h336v-79z" />
    <glyph glyph-name="F" unicode="F" horiz-adv-x="425" 
d="M419 480h-252v-182h175v-80h-175v-218h-85v560h337v-80z" />
    <glyph glyph-name="G" unicode="G" horiz-adv-x="571" 
d="M292 -5c-126 0 -238 92 -238 279v12c0 187 112 279 238 279c98 0 181 -65 208 -154l-81 -22c-17 53 -62 97 -127 97c-79 0 -154 -54 -154 -200v-12c0 -145 75 -200 153 -200c75 0 134 56 134 143v6h-142v75h232v-61c0 -150 -103 -242 -223 -242z" />
    <glyph glyph-name="Gbreve" unicode="&#x11e;" horiz-adv-x="571" 
d="M291 658c-55 0 -100 32 -127 74l48 41c12 -18 39 -47 79 -47c41 0 65 27 79 47l49 -41c-28 -43 -72 -74 -128 -74zM292 -5c-126 0 -238 92 -238 279v12c0 187 112 279 238 279c98 0 181 -65 208 -154l-81 -22c-17 53 -62 97 -127 97c-79 0 -154 -54 -154 -200v-12
c0 -145 75 -200 153 -200c75 0 134 56 134 143v6h-142v75h232v-61c0 -150 -103 -242 -223 -242z" />
    <glyph glyph-name="Gcommaaccent" unicode="&#x122;" horiz-adv-x="571" 
d="M292 -5c-126 0 -238 92 -238 279v12c0 187 112 279 238 279c98 0 181 -65 208 -154l-81 -22c-17 53 -62 97 -127 97c-79 0 -154 -54 -154 -200v-12c0 -145 75 -200 153 -200c75 0 134 56 134 143v6h-142v75h232v-61c0 -150 -103 -242 -223 -242zM298 -217l-80 9l34 170
l66 -6z" />
    <glyph glyph-name="Gdotaccent" unicode="&#x120;" horiz-adv-x="571" 
d="M290 641c-31 0 -53 22 -53 55c0 31 22 53 53 53c33 0 55 -22 55 -53c0 -33 -22 -55 -55 -55zM292 -5c-126 0 -238 92 -238 279v12c0 187 112 279 238 279c98 0 181 -65 208 -154l-81 -22c-17 53 -62 97 -127 97c-79 0 -154 -54 -154 -200v-12c0 -145 75 -200 153 -200
c75 0 134 56 134 143v6h-142v75h232v-61c0 -150 -103 -242 -223 -242z" />
    <glyph glyph-name="H" unicode="H" horiz-adv-x="538" 
d="M371 560h85v-560h-85v214h-204v-214h-85v557l85 4v-262h204v261z" />
    <glyph glyph-name="Hbar" unicode="&#x126;" horiz-adv-x="538" 
d="M519 474v-57h-63v-417h-85v214h-204v-214h-85v417h-65v57h65v83l85 4v-87h204v86h85v-86h63zM371 299v118h-204v-118h204z" />
    <glyph glyph-name="I" unicode="I" horiz-adv-x="269" 
d="M177 563v-563h-85v559z" />
    <glyph glyph-name="IJ" unicode="&#x132;" horiz-adv-x="634" 
d="M92 0v559l85 4v-563h-85zM344 559l213 4v-368c0 -132 -62 -200 -157 -200c-48 0 -86 19 -104 34l32 62c11 -6 33 -13 60 -13c61 1 84 47 84 120v282h-128v79z" />
    <glyph glyph-name="Iacute" unicode="&#xcd;" horiz-adv-x="269" 
d="M119 645l-28 53l167 118l42 -72zM177 563v-563h-85v559z" />
    <glyph glyph-name="uni01CF" unicode="&#x1cf;" horiz-adv-x="269" 
d="M258 754l-124 -110l-123 113l45 45l78 -73l80 72zM92 0v559l85 4v-563h-85z" />
    <glyph glyph-name="Icircumflex" unicode="&#xce;" horiz-adv-x="269" 
d="M134 804l124 -111l-44 -47l-80 72l-78 -72l-45 45zM92 0v559l85 4v-563h-85z" />
    <glyph glyph-name="Idieresis" unicode="&#xcf;" horiz-adv-x="269" 
d="M43 669c-28 0 -46 20 -46 48s18 46 46 46s48 -18 48 -46s-20 -48 -48 -48zM212 669c-28 0 -46 20 -46 48s18 46 46 46s48 -18 48 -46s-20 -48 -48 -48zM177 563v-563h-85v559z" />
    <glyph glyph-name="Idotaccent" unicode="&#x130;" horiz-adv-x="269" 
d="M134 641c-31 0 -53 22 -53 55c0 31 22 53 53 53c33 0 55 -22 55 -53c0 -33 -22 -55 -55 -55zM177 563v-563h-85v559z" />
    <glyph glyph-name="Igrave" unicode="&#xcc;" horiz-adv-x="269" 
d="M146 644l-182 99l43 73l168 -118zM177 563v-563h-85v559z" />
    <glyph glyph-name="Imacron" unicode="&#x12a;" horiz-adv-x="269" 
d="M23 671v67h224v-67h-224zM177 563v-563h-85v559z" />
    <glyph glyph-name="Iogonek" unicode="&#x12e;" horiz-adv-x="269" 
d="M177 0c-46 -26 -81 -50 -102 -78c-38 -51 16 -96 65 -48l32 -38c-86 -82 -195 -8 -147 85c17 35 42 59 77 79h-10v559l85 4v-563z" />
    <glyph glyph-name="J" unicode="J" horiz-adv-x="365" 
d="M75 559l213 4v-368c0 -132 -62 -200 -157 -200c-48 0 -86 19 -104 34l32 62c11 -6 33 -13 60 -13c61 1 84 47 84 120v282h-128v79z" />
    <glyph glyph-name="K" unicode="K" horiz-adv-x="522" 
d="M410 0l-146 284l-97 -126v-158h-85v559l85 5v-272l212 268h97l-158 -205l188 -355h-96z" />
    <glyph glyph-name="Kcommaaccent" unicode="&#x136;" horiz-adv-x="522" 
d="M318 355l188 -355h-96l-146 284l-97 -126v-158h-85v559l85 5v-272l212 268h97zM203 -198l34 170l66 -6l-20 -173z" />
    <glyph glyph-name="L" unicode="L" horiz-adv-x="394" 
d="M167 80h189v-80h-274v558l85 4v-482z" />
    <glyph glyph-name="Lacute" unicode="&#x139;" horiz-adv-x="394" 
d="M291 744l-181 -99l-28 53l167 118zM167 80h189v-80h-274v558l85 4v-482z" />
    <glyph glyph-name="Lcaron" unicode="&#x13d;" horiz-adv-x="394" 
d="M302 565l81 -5l-22 -208l-62 2zM167 562v-482h189v-80h-274v558z" />
    <glyph glyph-name="Lcommaaccent" unicode="&#x13b;" horiz-adv-x="394" 
d="M167 80h189v-80h-274v558l85 4v-482zM147 -203l34 170l66 -6l-20 -173z" />
    <glyph glyph-name="Ldot" unicode="&#x13f;" horiz-adv-x="389" 
d="M167 562v-482h189v-80h-274v558zM336 405c28 0 48 -18 48 -46s-20 -48 -48 -48s-46 20 -46 48s18 46 46 46z" />
    <glyph glyph-name="Lslash" unicode="&#x141;" horiz-adv-x="394" 
d="M167 80h189v-80h-274v243l-63 -61l-51 52l114 110v214l85 4v-136l68 66l52 -52l-120 -116v-244z" />
    <glyph glyph-name="M" unicode="M" horiz-adv-x="698" 
d="M530 562l86 -5v-557h-85v397l-157 -289h-50l-157 289v-397h-85v556l86 6l181 -332z" />
    <glyph glyph-name="N" unicode="N" horiz-adv-x="581" 
d="M414 559h85v-559h-78l-254 408v-408h-85v557l80 4l252 -410v408z" />
    <glyph glyph-name="Nacute" unicode="&#x143;" horiz-adv-x="581" 
d="M451 730l-181 -99l-28 53l167 118zM414 559h85v-559h-78l-254 408v-408h-85v557l80 4l252 -410v408z" />
    <glyph glyph-name="Ncaron" unicode="&#x147;" horiz-adv-x="581" 
d="M409 740l-124 -110l-123 113l45 45l78 -73l80 72zM414 559h85v-559h-78l-254 408v-408h-85v557l80 4l252 -410v408z" />
    <glyph glyph-name="Ncommaaccent" unicode="&#x145;" horiz-adv-x="581" 
d="M414 559h85v-559h-78l-254 408v-408h-85v557l80 4l252 -410v408zM216 -208l34 170l66 -6l-20 -173z" />
    <glyph glyph-name="Eng" unicode="&#x14a;" horiz-adv-x="581" 
d="M414 559h85v-628c0 -97 -60 -146 -136 -146c-37 0 -59 11 -75 18l21 75c10 -4 18 -8 44 -7c35 0 61 25 61 78v62l-247 397v-408h-85v557l80 4l252 -410v408z" />
    <glyph glyph-name="Ntilde" unicode="&#xd1;" horiz-adv-x="581" 
d="M242 687c-16 0 -25 -19 -33 -39l-59 31c8 24 32 75 78 75c38 0 70 -35 98 -35c19 0 26 13 36 37l61 -29c-8 -21 -31 -77 -82 -77c-43 1 -71 37 -99 37zM414 559h85v-559h-78l-254 408v-408h-85v557l80 4l252 -410v408z" />
    <glyph glyph-name="O" unicode="O" horiz-adv-x="579" 
d="M289 -5c-120 0 -232 92 -232 276v18c0 184 112 276 232 276s233 -92 233 -276v-18c0 -184 -113 -276 -233 -276zM289 74c74 0 149 55 149 197v18c0 143 -75 197 -149 197s-148 -54 -148 -197v-18c0 -142 74 -197 148 -197z" />
    <glyph glyph-name="Oacute" unicode="&#xd3;" horiz-adv-x="579" 
d="M274 645l-28 53l167 118l42 -72zM289 -5c-120 0 -232 92 -232 276v18c0 184 112 276 232 276s233 -92 233 -276v-18c0 -184 -113 -276 -233 -276zM289 74c74 0 149 55 149 197v18c0 143 -75 197 -149 197s-148 -54 -148 -197v-18c0 -142 74 -197 148 -197z" />
    <glyph glyph-name="uni01D1" unicode="&#x1d1;" horiz-adv-x="579" 
d="M413 754l-124 -110l-123 113l45 45l78 -73l80 72zM289 565c120 0 233 -92 233 -276v-18c0 -184 -113 -276 -233 -276s-232 92 -232 276v18c0 184 112 276 232 276zM438 271v18c0 143 -75 197 -149 197s-148 -54 -148 -197v-18c0 -142 74 -197 148 -197s149 55 149 197z
" />
    <glyph glyph-name="Ocircumflex" unicode="&#xd4;" horiz-adv-x="579" 
d="M289 718l-78 -72l-45 45l123 113l124 -111l-44 -47zM289 565c120 0 233 -92 233 -276v-18c0 -184 -113 -276 -233 -276s-232 92 -232 276v18c0 184 112 276 232 276zM438 271v18c0 143 -75 197 -149 197s-148 -54 -148 -197v-18c0 -142 74 -197 148 -197s149 55 149 197z
" />
    <glyph glyph-name="Odieresis" unicode="&#xd6;" horiz-adv-x="579" 
d="M198 669c-28 0 -46 20 -46 48s18 46 46 46s48 -18 48 -46s-20 -48 -48 -48zM367 669c-28 0 -46 20 -46 48s18 46 46 46s48 -18 48 -46s-20 -48 -48 -48zM289 -5c-120 0 -232 92 -232 276v18c0 184 112 276 232 276s233 -92 233 -276v-18c0 -184 -113 -276 -233 -276z
M289 74c74 0 149 55 149 197v18c0 143 -75 197 -149 197s-148 -54 -148 -197v-18c0 -142 74 -197 148 -197z" />
    <glyph glyph-name="Ograve" unicode="&#xd2;" horiz-adv-x="579" 
d="M301 644l-182 99l43 73l168 -118zM289 -5c-120 0 -232 92 -232 276v18c0 184 112 276 232 276s233 -92 233 -276v-18c0 -184 -113 -276 -233 -276zM289 74c74 0 149 55 149 197v18c0 143 -75 197 -149 197s-148 -54 -148 -197v-18c0 -142 74 -197 148 -197z" />
    <glyph glyph-name="Ohungarumlaut" unicode="&#x150;" horiz-adv-x="579" 
d="M242 636h-67l5 205l79 -5zM385 634l-67 2l12 203l79 -5zM289 -5c-120 0 -232 92 -232 276v18c0 184 112 276 232 276s233 -92 233 -276v-18c0 -184 -113 -276 -233 -276zM289 74c74 0 149 55 149 197v18c0 143 -75 197 -149 197s-148 -54 -148 -197v-18
c0 -142 74 -197 148 -197z" />
    <glyph glyph-name="Omacron" unicode="&#x14c;" horiz-adv-x="579" 
d="M178 671v67h224v-67h-224zM289 -5c-120 0 -232 92 -232 276v18c0 184 112 276 232 276s233 -92 233 -276v-18c0 -184 -113 -276 -233 -276zM289 74c74 0 149 55 149 197v18c0 143 -75 197 -149 197s-148 -54 -148 -197v-18c0 -142 74 -197 148 -197z" />
    <glyph glyph-name="Oslash" unicode="&#xd8;" horiz-adv-x="579" 
d="M547 509l-61 -63c23 -41 36 -94 36 -157v-18c0 -184 -113 -276 -233 -276c-63 0 -124 25 -167 76l-58 -59l-45 46l67 69c-18 39 -29 87 -29 144v18c0 184 112 276 232 276c58 0 115 -22 158 -66l54 56zM141 271c0 -30 3 -56 9 -78l241 248c-28 32 -65 45 -102 45
c-74 0 -148 -54 -148 -197v-18zM438 289c0 37 -5 68 -14 94l-245 -253c28 -39 69 -56 110 -56c74 0 149 55 149 197v18z" />
    <glyph glyph-name="Otilde" unicode="&#xd5;" horiz-adv-x="579" 
d="M213 662l-59 31c8 24 32 75 78 75c38 0 70 -35 98 -35c19 0 26 13 36 37l61 -29c-8 -21 -31 -77 -82 -77c-43 1 -71 37 -99 37c-16 0 -25 -19 -33 -39zM289 -5c-120 0 -232 92 -232 276v18c0 184 112 276 232 276s233 -92 233 -276v-18c0 -184 -113 -276 -233 -276z
M289 74c74 0 149 55 149 197v18c0 143 -75 197 -149 197s-148 -54 -148 -197v-18c0 -142 74 -197 148 -197z" />
    <glyph glyph-name="OE" unicode="&#x152;" horiz-adv-x="863" 
d="M812 481h-253v-172h183v-80h-183v-149h253v-80h-336v109c-42 -76 -113 -114 -187 -114c-120 0 -232 92 -232 276v18c0 184 112 276 232 276c74 0 145 -38 187 -114v109h336v-79zM438 271v18c0 143 -75 197 -149 197s-148 -54 -148 -197v-18c0 -142 74 -197 148 -197
s149 55 149 197z" />
    <glyph glyph-name="P" unicode="P" horiz-adv-x="472" 
d="M249 564c87 0 189 -52 189 -199c0 -117 -84 -190 -178 -191h-93v-174h-85v557c58 4 109 6 167 7zM167 251h80c53 0 106 40 106 112c0 80 -44 117 -110 117c-27 0 -49 -1 -76 -2v-227z" />
    <glyph glyph-name="Thorn" unicode="&#xde;" horiz-adv-x="488" 
d="M261 506c106 18 177 -94 177 -226c0 -147 -93 -226 -180 -217c-33 4 -59 19 -81 41v-104h-85v559l85 4v-108c24 25 54 45 84 51zM246 137c60 -4 103 50 103 143c0 90 -40 166 -107 151c-23 -5 -46 -23 -65 -46v-208c20 -21 43 -38 69 -40z" />
    <glyph glyph-name="Q" unicode="Q" horiz-adv-x="564" 
d="M508 77l22 -77h-252c-121 0 -237 96 -237 276v13c0 180 116 276 237 276c120 0 237 -96 237 -276v-13c0 -90 -35 -155 -85 -198zM125 276c0 -133 79 -192 153 -192s153 59 153 192v13c0 133 -79 193 -153 193s-153 -60 -153 -193v-13z" />
    <glyph glyph-name="R" unicode="R" horiz-adv-x="496" 
d="M448 0h-98l-94 175h-89v-175h-85v557c58 4 109 6 167 7c85 0 189 -53 189 -196c0 -84 -40 -143 -95 -173zM167 477v-225h80c53 0 106 38 106 114c0 77 -44 114 -110 114c-27 -1 -49 -1 -76 -3z" />
    <glyph glyph-name="Racute" unicode="&#x154;" horiz-adv-x="496" 
d="M403 744l-181 -99l-28 53l167 118zM448 0h-98l-94 175h-89v-175h-85v557c58 4 109 6 167 7c85 0 189 -53 189 -196c0 -84 -40 -143 -95 -173zM167 477v-225h80c53 0 106 38 106 114c0 77 -44 114 -110 114c-27 -1 -49 -1 -76 -3z" />
    <glyph glyph-name="Rcaron" unicode="&#x158;" horiz-adv-x="496" 
d="M361 754l-124 -110l-123 113l45 45l78 -73l80 72zM448 0h-98l-94 175h-89v-175h-85v557c58 4 109 6 167 7c85 0 189 -53 189 -196c0 -84 -40 -143 -95 -173zM167 477v-225h80c53 0 106 38 106 114c0 77 -44 114 -110 114c-27 -1 -49 -1 -76 -3z" />
    <glyph glyph-name="Rcommaaccent" unicode="&#x156;" horiz-adv-x="496" 
d="M343 195l105 -195h-98l-94 175h-89v-175h-85v557c58 4 109 6 167 7c85 0 189 -53 189 -196c0 -84 -40 -143 -95 -173zM167 477v-225h80c53 0 106 38 106 114c0 77 -44 114 -110 114c-27 -1 -49 -1 -76 -3zM177 -208l34 170l66 -6l-20 -173z" />
    <glyph glyph-name="S" unicode="S" horiz-adv-x="464" 
d="M235 -5c-100 0 -169 68 -180 148l82 22c6 -45 42 -84 95 -84c56 0 89 33 88 78c-1 113 -260 82 -260 255c0 85 76 151 172 151c93 0 167 -62 178 -141l-78 -20c-10 51 -52 77 -95 77c-54 0 -86 -36 -83 -71c6 -105 256 -71 256 -255c0 -87 -64 -160 -175 -160z" />
    <glyph glyph-name="Sacute" unicode="&#x15a;" horiz-adv-x="464" 
d="M219 645l-28 53l167 118l42 -72zM235 -5c-100 0 -169 68 -180 148l82 22c6 -45 42 -84 95 -84c56 0 89 33 88 78c-1 113 -260 82 -260 255c0 85 76 151 172 151c93 0 167 -62 178 -141l-78 -20c-10 51 -52 77 -95 77c-54 0 -86 -36 -83 -71c6 -105 256 -71 256 -255
c0 -87 -64 -160 -175 -160z" />
    <glyph glyph-name="Scaron" unicode="&#x160;" horiz-adv-x="464" 
d="M358 754l-124 -110l-123 113l45 45l78 -73l80 72zM154 410c6 -105 256 -71 256 -255c0 -87 -64 -160 -175 -160c-100 0 -169 68 -180 148l82 22c6 -45 42 -84 95 -84c56 0 89 33 88 78c-1 113 -260 82 -260 255c0 85 76 151 172 151c93 0 167 -62 178 -141l-78 -20
c-10 51 -52 77 -95 77c-54 0 -86 -36 -83 -71z" />
    <glyph glyph-name="Scedilla" unicode="&#x15e;" horiz-adv-x="464" 
d="M154 410c6 -105 256 -71 256 -255c0 -80 -54 -148 -148 -159l-6 -40c59 13 106 -23 106 -75c0 -59 -45 -92 -101 -92c-49 0 -79 26 -89 41l30 36c7 -8 24 -24 56 -24c24 0 46 14 46 41c0 26 -24 41 -59 41c-15 -1 -26 -1 -39 -2l1 75c-85 11 -142 74 -152 146l82 22
c6 -45 42 -84 95 -84c56 0 89 33 88 78c-1 113 -260 82 -260 255c0 85 76 151 172 151c93 0 167 -62 178 -141l-78 -20c-10 51 -52 77 -95 77c-54 0 -86 -36 -83 -71z" />
    <glyph glyph-name="Scommaaccent" unicode="&#x218;" horiz-adv-x="464" 
d="M235 -5c-100 0 -169 68 -180 148l82 22c6 -45 42 -84 95 -84c56 0 89 33 88 78c-1 113 -260 82 -260 255c0 85 76 151 172 151c93 0 167 -62 178 -141l-78 -20c-10 51 -52 77 -95 77c-54 0 -86 -36 -83 -71c6 -105 256 -71 256 -255c0 -87 -64 -160 -175 -160zM247 -217
l-80 9l34 170l66 -6z" />
    <glyph glyph-name="T" unicode="T" horiz-adv-x="383" 
d="M370 560v-82h-136v-478h-85v478h-135v82h356z" />
    <glyph glyph-name="Tbar" unicode="&#x166;" horiz-adv-x="383" 
d="M304 738v-67h-224v67h224zM370 560v-82h-136v-478h-85v478h-135v82h356z" />
    <glyph glyph-name="Tcaron" unicode="&#x164;" horiz-adv-x="383" 
d="M315 754l-124 -110l-123 113l45 45l78 -73l80 72zM370 560v-82h-136v-478h-85v478h-135v82h356z" />
    <glyph glyph-name="uni0162" unicode="&#x162;" horiz-adv-x="383" 
d="M234 0h-13l-6 -44c59 13 106 -23 106 -75c0 -59 -45 -92 -101 -92c-49 0 -79 26 -89 41l30 36c7 -8 24 -24 56 -24c24 0 46 14 46 41c0 26 -24 41 -59 41c-15 -1 -26 -1 -39 -2l1 78h-17v478h-135v82h356v-82h-136v-478z" />
    <glyph glyph-name="uni021A" unicode="&#x21a;" horiz-adv-x="383" 
d="M370 560v-82h-136v-478h-85v478h-135v82h356zM126 -208l34 170l66 -6l-20 -173z" />
    <glyph glyph-name="U" unicode="U" horiz-adv-x="558" 
d="M279 -4c-116 0 -206 82 -206 221l1 339l84 5l-1 -339c-1 -89 52 -141 122 -141c74 0 122 53 122 141l-1 338h84l2 -343c0 -139 -88 -221 -207 -221z" />
    <glyph glyph-name="Uacute" unicode="&#xda;" horiz-adv-x="558" 
d="M263 635l-28 53l167 118l42 -72zM279 -4c-116 0 -206 82 -206 221l1 339l84 5l-1 -339c-1 -89 52 -141 122 -141c74 0 122 53 122 141l-1 338h84l2 -343c0 -139 -88 -221 -207 -221z" />
    <glyph glyph-name="uni01D3" unicode="&#x1d3;" horiz-adv-x="558" 
d="M402 744l-124 -110l-123 113l45 45l78 -73l80 72zM484 560l2 -343c0 -139 -88 -221 -207 -221c-116 0 -206 82 -206 221l1 339l84 5l-1 -339c-1 -89 52 -141 122 -141c74 0 122 53 122 141l-1 338h84z" />
    <glyph glyph-name="Ucircumflex" unicode="&#xdb;" horiz-adv-x="558" 
d="M278 708l-78 -72l-45 45l123 113l124 -111l-44 -47zM484 560l2 -343c0 -139 -88 -221 -207 -221c-116 0 -206 82 -206 221l1 339l84 5l-1 -339c-1 -89 52 -141 122 -141c74 0 122 53 122 141l-1 338h84z" />
    <glyph glyph-name="Udieresis" unicode="&#xdc;" horiz-adv-x="558" 
d="M187 659c-28 0 -46 20 -46 48s18 46 46 46s48 -18 48 -46s-20 -48 -48 -48zM356 659c-28 0 -46 20 -46 48s18 46 46 46s48 -18 48 -46s-20 -48 -48 -48zM279 -4c-116 0 -206 82 -206 221l1 339l84 5l-1 -339c-1 -89 52 -141 122 -141c74 0 122 53 122 141l-1 338h84
l2 -343c0 -139 -88 -221 -207 -221z" />
    <glyph glyph-name="Ugrave" unicode="&#xd9;" horiz-adv-x="558" 
d="M290 634l-182 99l43 73l168 -118zM279 -4c-116 0 -206 82 -206 221l1 339l84 5l-1 -339c-1 -89 52 -141 122 -141c74 0 122 53 122 141l-1 338h84l2 -343c0 -139 -88 -221 -207 -221z" />
    <glyph glyph-name="Uhungarumlaut" unicode="&#x170;" horiz-adv-x="558" 
d="M231 626h-67l5 205l79 -5zM374 624l-67 2l12 203l79 -5zM279 -4c-116 0 -206 82 -206 221l1 339l84 5l-1 -339c-1 -89 52 -141 122 -141c74 0 122 53 122 141l-1 338h84l2 -343c0 -139 -88 -221 -207 -221z" />
    <glyph glyph-name="Umacron" unicode="&#x16a;" horiz-adv-x="558" 
d="M167 661v67h224v-67h-224zM279 -4c-116 0 -206 82 -206 221l1 339l84 5l-1 -339c-1 -89 52 -141 122 -141c74 0 122 53 122 141l-1 338h84l2 -343c0 -139 -88 -221 -207 -221z" />
    <glyph glyph-name="Uogonek" unicode="&#x172;" horiz-adv-x="558" 
d="M352 7c-43 -24 -76 -47 -96 -74c-38 -51 16 -96 65 -48l32 -38c-86 -82 -195 -8 -147 85c13 27 31 48 54 65c-106 8 -187 89 -187 220l1 339l84 5l-1 -339c-1 -89 52 -141 122 -141c74 0 122 53 122 141l-1 338h84l2 -343c0 -109 -54 -183 -134 -210z" />
    <glyph glyph-name="Uring" unicode="&#x16e;" horiz-adv-x="558" 
d="M279 627c-50 0 -88 41 -88 88c0 49 38 88 88 88c48 0 87 -39 87 -88c0 -47 -39 -88 -87 -88zM278 680c20 0 34 15 34 35s-14 36 -34 36s-35 -16 -35 -36s15 -35 35 -35zM279 -4c-116 0 -206 82 -206 221l1 339l84 5l-1 -339c-1 -89 52 -141 122 -141c74 0 122 53 122 141
l-1 338h84l2 -343c0 -139 -88 -221 -207 -221z" />
    <glyph glyph-name="V" unicode="V" horiz-adv-x="486" 
d="M385 563l87 -4l-187 -559h-85l-186 559l87 5l142 -442z" />
    <glyph glyph-name="W" unicode="W" horiz-adv-x="689" 
d="M583 563l85 -5l-129 -558h-75l-119 384l-119 -384h-75l-130 558l85 5l92 -410l116 392h61l116 -392z" />
    <glyph glyph-name="Wacute" unicode="&#x1e82;" horiz-adv-x="689" 
d="M510 744l-181 -99l-28 53l167 118zM583 563l85 -5l-129 -558h-75l-119 384l-119 -384h-75l-130 558l85 5l92 -410l116 392h61l116 -392z" />
    <glyph glyph-name="Wcircumflex" unicode="&#x174;" horiz-adv-x="689" 
d="M344 718l-78 -72l-45 45l123 113l124 -111l-44 -47zM583 563l85 -5l-129 -558h-75l-119 384l-119 -384h-75l-130 558l85 5l92 -410l116 392h61l116 -392z" />
    <glyph glyph-name="Wdieresis" unicode="&#x1e84;" horiz-adv-x="689" 
d="M253 669c-28 0 -46 20 -46 48s18 46 46 46s48 -18 48 -46s-20 -48 -48 -48zM422 669c-28 0 -46 20 -46 48s18 46 46 46s48 -18 48 -46s-20 -48 -48 -48zM583 563l85 -5l-129 -558h-75l-119 384l-119 -384h-75l-130 558l85 5l92 -410l116 392h61l116 -392z" />
    <glyph glyph-name="Wgrave" unicode="&#x1e80;" horiz-adv-x="689" 
d="M385 698l-29 -54l-182 99l43 73zM583 563l85 -5l-129 -558h-75l-119 384l-119 -384h-75l-130 558l85 5l92 -410l116 392h61l116 -392z" />
    <glyph glyph-name="X" unicode="X" horiz-adv-x="533" 
d="M512 0h-93l-152 224l-152 -224h-94l196 286l-187 273l94 2l142 -212l145 214l93 -1l-187 -277z" />
    <glyph glyph-name="Y" unicode="Y" horiz-adv-x="448" 
d="M436 558l-170 -327v-231h-85v233l-170 325l88 5l125 -251l125 251z" />
    <glyph glyph-name="Yacute" unicode="&#xdd;" horiz-adv-x="448" 
d="M389 729l-181 -99l-28 53l167 118zM436 558l-170 -327v-231h-85v233l-170 325l88 5l125 -251l125 251z" />
    <glyph glyph-name="Ycircumflex" unicode="&#x176;" horiz-adv-x="448" 
d="M223 703l-78 -72l-45 45l123 113l124 -111l-44 -47zM436 558l-170 -327v-231h-85v233l-170 325l88 5l125 -251l125 251z" />
    <glyph glyph-name="Ydieresis" unicode="&#x178;" horiz-adv-x="448" 
d="M132 654c-28 0 -46 20 -46 48s18 46 46 46s48 -18 48 -46s-20 -48 -48 -48zM301 654c-28 0 -46 20 -46 48s18 46 46 46s48 -18 48 -46s-20 -48 -48 -48zM436 558l-170 -327v-231h-85v233l-170 325l88 5l125 -251l125 251z" />
    <glyph glyph-name="Ygrave" unicode="&#x1ef2;" horiz-adv-x="448" 
d="M264 683l-29 -54l-182 99l43 73zM436 558l-170 -327v-231h-85v233l-170 325l88 5l125 -251l125 251z" />
    <glyph glyph-name="Z" unicode="Z" horiz-adv-x="445" 
d="M139 79h266v-79h-364v84l268 396h-267v79h362v-86z" />
    <glyph glyph-name="Zacute" unicode="&#x179;" horiz-adv-x="445" 
d="M388 744l-181 -99l-28 53l167 118zM139 79h266v-79h-364v84l268 396h-267v79h362v-86z" />
    <glyph glyph-name="Zcaron" unicode="&#x17d;" horiz-adv-x="445" 
d="M346 754l-124 -110l-123 113l45 45l78 -73l80 72zM139 79h266v-79h-364v84l268 396h-267v79h362v-86z" />
    <glyph glyph-name="Zdotaccent" unicode="&#x17b;" horiz-adv-x="445" 
d="M222 641c-31 0 -53 22 -53 55c0 31 22 53 53 53c33 0 55 -22 55 -53c0 -33 -22 -55 -55 -55zM139 79h266v-79h-364v84l268 396h-267v79h362v-86z" />
    <glyph glyph-name="B.ss01" horiz-adv-x="518" 
d="M87 0v557c32 2 154 8 179 8c112 3 171 -64 171 -149c0 -60 -27 -95 -53 -114c52 -22 88 -75 88 -142c0 -109 -89 -160 -166 -160h-219zM172 323h99c53 0 80 39 80 84s-37 79 -83 79c-33 -1 -66 -3 -96 -5v-158zM172 81h116c53 0 94 34 94 88c0 49 -32 84 -84 84l-126 -1
v-171z" />
    <glyph glyph-name="D.ss01" horiz-adv-x="547" 
d="M87 0v558c57 3 117 5 165 7c107 5 238 -81 238 -289c0 -231 -156 -276 -244 -276h-159zM172 85h73c96 0 159 64 159 191c0 132 -71 208 -153 205l-79 -5v-391z" />
    <glyph glyph-name="P.ss01" horiz-adv-x="479" 
d="M254 565c90 0 189 -54 189 -199c0 -117 -84 -191 -178 -193h-93v-173h-85v558c59 3 121 6 167 7zM172 251h81c52 0 105 42 105 113c0 78 -45 116 -105 116l-81 -3v-226z" />
    <glyph glyph-name="R.ss01" horiz-adv-x="494" 
d="M452 0h-98l-94 173h-88v-173h-85v558c59 3 121 6 167 7c87 0 189 -54 189 -199c0 -81 -41 -142 -97 -172zM172 477v-226h81c52 0 105 41 105 113c0 78 -44 116 -105 116z" />
    <glyph glyph-name="a" unicode="a" horiz-adv-x="493" 
d="M407 167c0 -54 10 -85 60 -85v-78c-72 -11 -121 11 -138 75c-25 -35 -58 -72 -107 -79c-106 -17 -181 78 -181 218c0 132 78 250 192 225c42 -8 70 -41 91 -74v33l2 43l82 -5zM235 73c32 3 58 27 87 63v3l1 162c-24 34 -50 61 -81 68c-68 12 -114 -58 -114 -152
c0 -92 42 -148 107 -144z" />
    <glyph glyph-name="aacute" unicode="&#xe1;" horiz-adv-x="493" 
d="M416 619l-181 -99l-28 53l167 118zM407 167c0 -54 10 -85 60 -85v-78c-72 -11 -121 11 -138 75c-25 -35 -58 -72 -107 -79c-106 -17 -181 78 -181 218c0 132 78 250 192 225c42 -8 70 -41 91 -74v33l2 43l82 -5zM235 73c32 3 58 27 87 63v3l1 162c-24 34 -50 61 -81 68
c-68 12 -114 -58 -114 -152c0 -92 42 -148 107 -144z" />
    <glyph glyph-name="abreve" unicode="&#x103;" horiz-adv-x="493" 
d="M251 533c-55 0 -100 32 -127 74l48 41c12 -18 39 -47 79 -47c41 0 65 27 79 47l49 -41c-28 -43 -72 -74 -128 -74zM407 167c0 -54 10 -85 60 -85v-78c-72 -11 -121 11 -138 75c-25 -35 -58 -72 -107 -79c-106 -17 -181 78 -181 218c0 132 78 250 192 225
c42 -8 70 -41 91 -74v33l2 43l82 -5zM235 73c32 3 58 27 87 63v3l1 162c-24 34 -50 61 -81 68c-68 12 -114 -58 -114 -152c0 -92 42 -148 107 -144z" />
    <glyph glyph-name="uni01CE" unicode="&#x1ce;" horiz-adv-x="493" 
d="M374 629l-124 -110l-123 113l45 45l78 -73l80 72zM407 167c0 -54 10 -85 60 -85v-78c-72 -11 -121 11 -138 75c-25 -35 -58 -72 -107 -79c-106 -17 -181 78 -181 218c0 132 78 250 192 225c42 -8 70 -41 91 -74v33l2 43l82 -5zM235 73c32 3 58 27 87 63v3l1 162
c-24 34 -50 61 -81 68c-68 12 -114 -58 -114 -152c0 -92 42 -148 107 -144z" />
    <glyph glyph-name="acircumflex" unicode="&#xe2;" horiz-adv-x="493" 
d="M250 593l-78 -72l-45 45l123 113l124 -111l-44 -47zM407 167c0 -54 10 -85 60 -85v-78c-72 -11 -121 11 -138 75c-25 -35 -58 -72 -107 -79c-106 -17 -181 78 -181 218c0 132 78 250 192 225c42 -8 70 -41 91 -74v33l2 43l82 -5zM235 73c32 3 58 27 87 63v3l1 162
c-24 34 -50 61 -81 68c-68 12 -114 -58 -114 -152c0 -92 42 -148 107 -144z" />
    <glyph glyph-name="adieresis" unicode="&#xe4;" horiz-adv-x="493" 
d="M159 544c-28 0 -46 20 -46 48s18 46 46 46s48 -18 48 -46s-20 -48 -48 -48zM328 544c-28 0 -46 20 -46 48s18 46 46 46s48 -18 48 -46s-20 -48 -48 -48zM407 167c0 -54 10 -85 60 -85v-78c-72 -11 -121 11 -138 75c-25 -35 -58 -72 -107 -79c-106 -17 -181 78 -181 218
c0 132 78 250 192 225c42 -8 70 -41 91 -74v33l2 43l82 -5zM235 73c32 3 58 27 87 63v3l1 162c-24 34 -50 61 -81 68c-68 12 -114 -58 -114 -152c0 -92 42 -148 107 -144z" />
    <glyph glyph-name="agrave" unicode="&#xe0;" horiz-adv-x="493" 
d="M291 573l-29 -54l-182 99l43 73zM407 167c0 -54 10 -85 60 -85v-78c-72 -11 -121 11 -138 75c-25 -35 -58 -72 -107 -79c-106 -17 -181 78 -181 218c0 132 78 250 192 225c42 -8 70 -41 91 -74v33l2 43l82 -5zM235 73c32 3 58 27 87 63v3l1 162c-24 34 -50 61 -81 68
c-68 12 -114 -58 -114 -152c0 -92 42 -148 107 -144z" />
    <glyph glyph-name="amacron" unicode="&#x101;" horiz-adv-x="493" 
d="M363 613v-67h-224v67h224zM407 167c0 -54 10 -85 60 -85v-78c-72 -11 -121 11 -138 75c-25 -35 -58 -72 -107 -79c-106 -17 -181 78 -181 218c0 132 78 250 192 225c42 -8 70 -41 91 -74v33l2 43l82 -5zM235 73c32 3 58 27 87 63v3l1 162c-24 34 -50 61 -81 68
c-68 12 -114 -58 -114 -152c0 -92 42 -148 107 -144z" />
    <glyph glyph-name="aogonek" unicode="&#x105;" horiz-adv-x="493" 
d="M407 167c0 -54 10 -85 60 -85v-78h-2c-45 -26 -79 -49 -100 -77c-38 -51 16 -96 65 -48l32 -38c-86 -82 -195 -8 -147 85c18 36 43 60 80 81c-33 9 -55 33 -66 72c-25 -35 -58 -72 -107 -79c-106 -17 -181 78 -181 218c0 132 78 250 192 225c42 -8 70 -41 91 -74v33l2 43
l82 -5zM235 73c32 3 58 27 87 63v3l1 162c-24 34 -50 61 -81 68c-68 12 -114 -58 -114 -152c0 -92 42 -148 107 -144z" />
    <glyph glyph-name="aring" unicode="&#xe5;" horiz-adv-x="493" 
d="M251 512c-50 0 -88 41 -88 88c0 49 38 88 88 88c48 0 87 -39 87 -88c0 -47 -39 -88 -87 -88zM250 636c-20 0 -35 -16 -35 -36s15 -35 35 -35s34 15 34 35s-14 36 -34 36zM407 167c0 -54 10 -85 60 -85v-78c-72 -11 -121 11 -138 75c-25 -35 -58 -72 -107 -79
c-106 -17 -181 78 -181 218c0 132 78 250 192 225c42 -8 70 -41 91 -74v33l2 43l82 -5zM235 73c32 3 58 27 87 63v3l1 162c-24 34 -50 61 -81 68c-68 12 -114 -58 -114 -152c0 -92 42 -148 107 -144z" />
    <glyph glyph-name="atilde" unicode="&#xe3;" horiz-adv-x="493" 
d="M207 576c-16 0 -25 -19 -33 -39l-59 31c8 24 32 75 78 75c38 0 70 -35 98 -35c19 0 26 13 36 37l61 -29c-8 -21 -31 -77 -82 -77c-43 1 -71 37 -99 37zM407 167c0 -54 10 -85 60 -85v-78c-72 -11 -121 11 -138 75c-25 -35 -58 -72 -107 -79c-106 -17 -181 78 -181 218
c0 132 78 250 192 225c42 -8 70 -41 91 -74v33l2 43l82 -5zM235 73c32 3 58 27 87 63v3l1 162c-24 34 -50 61 -81 68c-68 12 -114 -58 -114 -152c0 -92 42 -148 107 -144z" />
    <glyph glyph-name="ae" unicode="&#xe6;" horiz-adv-x="829" 
d="M776 193h-300v-7c6 -65 48 -119 109 -119c52 0 92 31 107 77l78 -22c-26 -73 -95 -127 -184 -127c-87 0 -150 57 -176 139v-134h-81v75c-25 -34 -57 -68 -104 -75c-106 -17 -181 78 -181 218c0 132 78 250 192 225c44 -8 71 -43 93 -77v78l81 -5v-132
c26 81 89 138 176 138c117 0 192 -97 192 -214c0 -23 -1 -29 -2 -38zM238 73c34 3 61 30 91 68v156c-25 36 -52 65 -84 72c-68 12 -114 -58 -114 -152c0 -92 42 -148 107 -144zM585 373c-59 0 -103 -48 -106 -109h216c0 69 -52 109 -110 109z" />
    <glyph glyph-name="b" unicode="b" horiz-adv-x="481" 
d="M264 445c106 18 177 -94 177 -226c0 -147 -93 -226 -180 -217c-44 5 -77 32 -102 66v-18l-4 -50h-80v596l85 4v-231c26 38 64 68 104 76zM249 76c60 -4 103 50 103 143c0 90 -40 166 -107 151c-32 -7 -62 -39 -86 -73v-156c23 -31 54 -63 90 -65z" />
    <glyph glyph-name="c" unicode="c" horiz-adv-x="445" 
d="M237 -5c-116 0 -195 97 -195 219v12c0 122 79 219 195 219c78 0 140 -51 167 -108l-70 -42c-11 33 -46 71 -97 71c-67 0 -114 -59 -114 -140v-12c0 -81 47 -140 113 -140c52 0 87 37 98 70l69 -43c-29 -59 -92 -106 -166 -106z" />
    <glyph glyph-name="cacute" unicode="&#x107;" horiz-adv-x="445" 
d="M216 521l-28 53l167 118l42 -72zM237 -5c-116 0 -195 97 -195 219v12c0 122 79 219 195 219c78 0 140 -51 167 -108l-70 -42c-11 33 -46 71 -97 71c-67 0 -114 -59 -114 -140v-12c0 -81 47 -140 113 -140c52 0 87 37 98 70l69 -43c-29 -59 -92 -106 -166 -106z" />
    <glyph glyph-name="ccaron" unicode="&#x10d;" horiz-adv-x="445" 
d="M355 630l-124 -110l-123 113l45 45l78 -73l80 72zM236 74c52 0 87 37 98 70l69 -43c-29 -59 -92 -106 -166 -106c-116 0 -195 97 -195 219v12c0 122 79 219 195 219c78 0 140 -51 167 -108l-70 -42c-11 33 -46 71 -97 71c-67 0 -114 -59 -114 -140v-12
c0 -81 47 -140 113 -140z" />
    <glyph glyph-name="ccedilla" unicode="&#xe7;" horiz-adv-x="445" 
d="M236 74c52 0 87 37 98 70l69 -43c-27 -54 -82 -98 -148 -105l-6 -39c59 13 106 -23 106 -75c0 -59 -45 -92 -101 -92c-49 0 -79 26 -89 41l30 36c7 -8 24 -24 56 -24c24 0 46 14 46 41c0 26 -24 41 -59 41c-15 -1 -26 -1 -39 -2l1 75c-96 19 -158 107 -158 216v12
c0 122 79 219 195 219c78 0 140 -51 167 -108l-70 -42c-11 33 -46 71 -97 71c-67 0 -114 -59 -114 -140v-12c0 -81 47 -140 113 -140z" />
    <glyph glyph-name="cdotaccent" unicode="&#x10b;" horiz-adv-x="445" 
d="M231 517c-31 0 -53 22 -53 55c0 31 22 53 53 53c33 0 55 -22 55 -53c0 -33 -22 -55 -55 -55zM237 -5c-116 0 -195 97 -195 219v12c0 122 79 219 195 219c78 0 140 -51 167 -108l-70 -42c-11 33 -46 71 -97 71c-67 0 -114 -59 -114 -140v-12c0 -81 47 -140 113 -140
c52 0 87 37 98 70l69 -43c-29 -59 -92 -106 -166 -106z" />
    <glyph glyph-name="d" unicode="d" horiz-adv-x="483" 
d="M324 595l85 -4v-591h-80l-5 59v13c-24 -33 -56 -65 -102 -72c-106 -17 -181 78 -181 218c0 132 78 250 192 225c42 -8 70 -41 91 -74v226zM235 73c33 3 60 28 89 66v161c-24 35 -51 62 -82 69c-68 12 -114 -58 -114 -152c0 -92 42 -148 107 -144z" />
    <glyph glyph-name="eth" unicode="&#xf0;" horiz-adv-x="499" 
d="M455 329c0 -113 -33 -272 -156 -320c-20 -9 -43 -14 -67 -14h-4h-2c-112 3 -190 101 -190 225c0 123 84 221 191 220c66 -1 119 -40 152 -97c-3 98 -34 178 -84 237l-60 -55l-35 39l58 54c-26 23 -56 42 -88 56l36 59c38 -16 74 -38 106 -66l53 49l35 -40l-51 -46
c65 -75 106 -178 106 -301zM120 220c0 -94 48 -155 116 -155c70 0 117 61 117 155c0 99 -47 161 -116 161s-117 -62 -117 -161z" />
    <glyph glyph-name="dcaron" unicode="&#x10f;" horiz-adv-x="483" 
d="M485 603l81 -5l-22 -208l-62 2zM324 369v226l85 -4v-591h-80l-5 59v13c-24 -33 -56 -65 -102 -72c-106 -17 -181 78 -181 218c0 132 78 250 192 225c42 -8 70 -41 91 -74zM235 73c33 3 60 28 89 66v161c-24 35 -51 62 -82 69c-68 12 -114 -58 -114 -152
c0 -92 42 -148 107 -144z" />
    <glyph glyph-name="dcroat" unicode="&#x111;" horiz-adv-x="473" 
d="M454 548l-1 -72h-44v-476h-80l-5 59v13c-24 -33 -56 -65 -102 -72c-106 -17 -181 78 -181 218c0 132 78 250 192 225c42 -8 70 -41 91 -74v107h-92v72h92v47l85 -4v-43h45zM235 73c33 3 60 28 89 66v161c-24 35 -51 62 -82 69c-68 12 -114 -58 -114 -152
c0 -92 42 -148 107 -144z" />
    <glyph glyph-name="e" unicode="e" horiz-adv-x="485" 
d="M242 -5c-116 0 -189 101 -189 226c0 123 73 224 189 224c117 0 192 -97 192 -214c0 -23 -1 -29 -2 -38h-300v-7c6 -65 48 -119 109 -119c52 0 92 31 107 77l78 -22c-26 -73 -95 -127 -184 -127zM135 264h216c0 69 -52 109 -110 109c-59 0 -103 -48 -106 -109z" />
    <glyph glyph-name="eacute" unicode="&#xe9;" horiz-adv-x="485" 
d="M227 515l-28 53l167 118l42 -72zM242 -5c-116 0 -189 101 -189 226c0 123 73 224 189 224c117 0 192 -97 192 -214c0 -23 -1 -29 -2 -38h-300v-7c6 -65 48 -119 109 -119c52 0 92 31 107 77l78 -22c-26 -73 -95 -127 -184 -127zM135 264h216c0 69 -52 109 -110 109
c-59 0 -103 -48 -106 -109z" />
    <glyph glyph-name="ecaron" unicode="&#x11b;" horiz-adv-x="485" 
d="M366 624l-124 -110l-123 113l45 45l78 -73l80 72zM432 193h-300v-7c6 -65 48 -119 109 -119c52 0 92 31 107 77l78 -22c-26 -73 -95 -127 -184 -127c-116 0 -189 101 -189 226c0 123 73 224 189 224c117 0 192 -97 192 -214c0 -23 -1 -29 -2 -38zM241 373
c-59 0 -103 -48 -106 -109h216c0 69 -52 109 -110 109z" />
    <glyph glyph-name="ecircumflex" unicode="&#xea;" horiz-adv-x="485" 
d="M242 588l-78 -72l-45 45l123 113l124 -111l-44 -47zM432 193h-300v-7c6 -65 48 -119 109 -119c52 0 92 31 107 77l78 -22c-26 -73 -95 -127 -184 -127c-116 0 -189 101 -189 226c0 123 73 224 189 224c117 0 192 -97 192 -214c0 -23 -1 -29 -2 -38zM241 373
c-59 0 -103 -48 -106 -109h216c0 69 -52 109 -110 109z" />
    <glyph glyph-name="edieresis" unicode="&#xeb;" horiz-adv-x="485" 
d="M151 539c-28 0 -46 20 -46 48s18 46 46 46s48 -18 48 -46s-20 -48 -48 -48zM320 539c-28 0 -46 20 -46 48s18 46 46 46s48 -18 48 -46s-20 -48 -48 -48zM242 -5c-116 0 -189 101 -189 226c0 123 73 224 189 224c117 0 192 -97 192 -214c0 -23 -1 -29 -2 -38h-300v-7
c6 -65 48 -119 109 -119c52 0 92 31 107 77l78 -22c-26 -73 -95 -127 -184 -127zM135 264h216c0 69 -52 109 -110 109c-59 0 -103 -48 -106 -109z" />
    <glyph glyph-name="edotaccent" unicode="&#x117;" horiz-adv-x="485" 
d="M242 511c-31 0 -53 22 -53 55c0 31 22 53 53 53c33 0 55 -22 55 -53c0 -33 -22 -55 -55 -55zM242 -5c-116 0 -189 101 -189 226c0 123 73 224 189 224c117 0 192 -97 192 -214c0 -23 -1 -29 -2 -38h-300v-7c6 -65 48 -119 109 -119c52 0 92 31 107 77l78 -22
c-26 -73 -95 -127 -184 -127zM135 264h216c0 69 -52 109 -110 109c-59 0 -103 -48 -106 -109z" />
    <glyph glyph-name="egrave" unicode="&#xe8;" horiz-adv-x="485" 
d="M254 514l-182 99l43 73l168 -118zM242 -5c-116 0 -189 101 -189 226c0 123 73 224 189 224c117 0 192 -97 192 -214c0 -23 -1 -29 -2 -38h-300v-7c6 -65 48 -119 109 -119c52 0 92 31 107 77l78 -22c-26 -73 -95 -127 -184 -127zM135 264h216c0 69 -52 109 -110 109
c-59 0 -103 -48 -106 -109z" />
    <glyph glyph-name="emacron" unicode="&#x113;" horiz-adv-x="485" 
d="M131 541v67h224v-67h-224zM242 -5c-116 0 -189 101 -189 226c0 123 73 224 189 224c117 0 192 -97 192 -214c0 -23 -1 -29 -2 -38h-300v-7c6 -65 48 -119 109 -119c52 0 92 31 107 77l78 -22c-26 -73 -95 -127 -184 -127zM135 264h216c0 69 -52 109 -110 109
c-59 0 -103 -48 -106 -109z" />
    <glyph glyph-name="eogonek" unicode="&#x119;" horiz-adv-x="485" 
d="M432 193h-300v-7c6 -65 48 -119 109 -119c52 0 92 31 107 77l78 -22c-20 -58 -68 -103 -130 -120c-44 -25 -77 -48 -97 -75c-38 -51 16 -96 65 -48l32 -38c-86 -82 -195 -8 -147 85c15 31 36 53 64 71c-99 16 -160 110 -160 224c0 123 73 224 189 224
c117 0 192 -97 192 -214c0 -23 -1 -29 -2 -38zM241 373c-59 0 -103 -48 -106 -109h216c0 69 -52 109 -110 109z" />
    <glyph glyph-name="f" unicode="f" horiz-adv-x="283" 
d="M236 529c-31 -2 -59 -26 -59 -67v-37h87v-73h-87v-352h-85v352h-53v73h53v42c0 87 60 135 136 135c25 0 56 -6 71 -13l-19 -66c-11 3 -23 7 -44 6z" />
    <glyph glyph-name="g" unicode="g" horiz-adv-x="486" 
d="M463 433l-3 -80l-78 5c27 -38 44 -85 44 -134s-16 -95 -42 -131c23 -28 42 -66 41 -111c-1 -107 -80 -189 -196 -189c-96 0 -158 62 -181 113l66 33c15 -25 54 -68 115 -68c67 0 112 48 112 111c0 26 -6 44 -16 59c-27 -16 -58 -25 -92 -25c-113 0 -197 97 -197 214
c0 114 84 215 197 215h2c4 0 7 0 10 -1zM232 91c68 0 116 62 116 139c0 79 -48 141 -115 141c-68 0 -115 -62 -115 -141c0 -77 47 -139 114 -139z" />
    <glyph glyph-name="gbreve" unicode="&#x11f;" horiz-adv-x="486" 
d="M240 528c-55 0 -100 32 -127 74l48 41c12 -18 39 -47 79 -47c41 0 65 27 79 47l49 -41c-28 -43 -72 -74 -128 -74zM463 433l-3 -80l-78 5c27 -38 44 -85 44 -134s-16 -95 -42 -131c23 -28 42 -66 41 -111c-1 -107 -80 -189 -196 -189c-96 0 -158 62 -181 113l66 33
c15 -25 54 -68 115 -68c67 0 112 48 112 111c0 26 -6 44 -16 59c-27 -16 -58 -25 -92 -25c-113 0 -197 97 -197 214c0 114 84 215 197 215h2c4 0 7 0 10 -1zM232 91c68 0 116 62 116 139c0 79 -48 141 -115 141c-68 0 -115 -62 -115 -141c0 -77 47 -139 114 -139z" />
    <glyph glyph-name="gcommaaccent" unicode="&#x123;" horiz-adv-x="486" 
d="M291 682l-36 -175l-65 5l20 178zM463 433l-3 -80l-78 5c27 -38 44 -85 44 -134s-16 -95 -42 -131c23 -28 42 -66 41 -111c-1 -107 -80 -189 -196 -189c-96 0 -158 62 -181 113l66 33c15 -25 54 -68 115 -68c67 0 112 48 112 111c0 26 -6 44 -16 59
c-27 -16 -58 -25 -92 -25c-113 0 -197 97 -197 214c0 114 84 215 197 215h2c4 0 7 0 10 -1zM232 91c68 0 116 62 116 139c0 79 -48 141 -115 141c-68 0 -115 -62 -115 -141c0 -77 47 -139 114 -139z" />
    <glyph glyph-name="gdotaccent" unicode="&#x121;" horiz-adv-x="486" 
d="M239 511c-31 0 -53 22 -53 55c0 31 22 53 53 53c33 0 55 -22 55 -53c0 -33 -22 -55 -55 -55zM463 433l-3 -80l-78 5c27 -38 44 -85 44 -134s-16 -95 -42 -131c23 -28 42 -66 41 -111c-1 -107 -80 -189 -196 -189c-96 0 -158 62 -181 113l66 33c15 -25 54 -68 115 -68
c67 0 112 48 112 111c0 26 -6 44 -16 59c-27 -16 -58 -25 -92 -25c-113 0 -197 97 -197 214c0 114 84 215 197 215h2c4 0 7 0 10 -1zM232 91c68 0 116 62 116 139c0 79 -48 141 -115 141c-68 0 -115 -62 -115 -141c0 -77 47 -139 114 -139z" />
    <glyph glyph-name="h" unicode="h" horiz-adv-x="503" 
d="M275 445c92 10 158 -59 158 -155v-290h-85v267c0 67 -39 111 -100 100c-32 -6 -68 -36 -88 -69v-298h-85v589l85 5v-223c27 37 68 68 115 74z" />
    <glyph glyph-name="hbar" unicode="&#x127;" horiz-adv-x="491" 
d="M275 445c92 10 158 -59 158 -155v-290h-85v267c0 67 -39 111 -100 100c-32 -6 -68 -36 -88 -69v-298h-85v478h-59v72h59v39l85 5v-44h78l-1 -72h-77v-107c27 37 68 68 115 74z" />
    <glyph glyph-name="i" unicode="i" horiz-adv-x="235" 
d="M116 485c-31 0 -53 22 -53 55c0 31 22 53 53 53c33 0 55 -22 55 -53c0 -33 -22 -55 -55 -55zM75 0v431l85 5v-436h-85z" />
    <glyph glyph-name="dotlessi" unicode="&#x131;" horiz-adv-x="235" 
d="M75 0v431l85 5v-436h-85z" />
    <glyph glyph-name="iacute" unicode="&#xed;" horiz-adv-x="235" 
d="M101 489l-28 53l167 118l42 -72zM75 0v431l85 5v-436h-85z" />
    <glyph glyph-name="uni01D0" unicode="&#x1d0;" horiz-adv-x="235" 
d="M240 598l-124 -110l-123 113l45 45l78 -73l80 72zM75 0v431l85 5v-436h-85z" />
    <glyph glyph-name="icircumflex" unicode="&#xee;" horiz-adv-x="235" 
d="M116 648l124 -111l-44 -47l-80 72l-78 -72l-45 45zM75 0v431l85 5v-436h-85z" />
    <glyph glyph-name="idieresis" unicode="&#xef;" horiz-adv-x="235" 
d="M25 513c-28 0 -46 20 -46 48s18 46 46 46s48 -18 48 -46s-20 -48 -48 -48zM194 513c-28 0 -46 20 -46 48s18 46 46 46s48 -18 48 -46s-20 -48 -48 -48zM75 0v431l85 5v-436h-85z" />
    <glyph glyph-name="i.loclTRK" horiz-adv-x="235" 
d="M116 485c-31 0 -53 22 -53 55c0 31 22 53 53 53c33 0 55 -22 55 -53c0 -33 -22 -55 -55 -55zM75 0v431l85 5v-436h-85z" />
    <glyph glyph-name="igrave" unicode="&#xec;" horiz-adv-x="235" 
d="M128 488l-182 99l43 73l168 -118zM75 0v431l85 5v-436h-85z" />
    <glyph glyph-name="ij" unicode="&#x133;" horiz-adv-x="462" 
d="M347 495c-31 0 -53 22 -53 55c0 31 22 53 53 53c33 0 55 -22 55 -53c0 -33 -22 -55 -55 -55zM116 485c-31 0 -53 22 -53 55c0 31 22 53 53 53c33 0 55 -22 55 -53c0 -33 -22 -55 -55 -55zM75 0v431l85 5v-436h-85zM259 -207c-33 0 -64 10 -80 22l21 71c10 -4 23 -8 43 -8
c36 1 62 25 62 89v463l85 5v-468c0 -122 -50 -174 -131 -174z" />
    <glyph glyph-name="imacron" unicode="&#x12b;" horiz-adv-x="235" 
d="M5 515v67h224v-67h-224zM75 0v431l85 5v-436h-85z" />
    <glyph glyph-name="iogonek" unicode="&#x12f;" horiz-adv-x="235" 
d="M116 485c-31 0 -53 22 -53 55c0 31 22 53 53 53c33 0 55 -22 55 -53c0 -33 -22 -55 -55 -55zM75 0v431l85 5v-436c-46 -26 -81 -50 -102 -78c-38 -51 16 -96 65 -48l32 -38c-86 -82 -195 -8 -147 85c17 35 42 59 77 79h-10z" />
    <glyph glyph-name="j" unicode="j" horiz-adv-x="227" 
d="M112 495c-31 0 -53 22 -53 55c0 31 22 53 53 53c33 0 55 -22 55 -53c0 -33 -22 -55 -55 -55zM24 -207c-33 0 -64 10 -80 22l21 71c10 -4 23 -8 43 -8c36 1 62 25 62 89v463l85 5v-468c0 -122 -50 -174 -131 -174z" />
    <glyph glyph-name="uni0237" unicode="&#x237;" horiz-adv-x="227" 
d="M24 -207c-33 0 -64 10 -80 22l21 71c10 -4 23 -8 43 -8c36 1 62 25 62 89v463l85 5v-468c0 -122 -50 -174 -131 -174z" />
    <glyph glyph-name="k" unicode="k" horiz-adv-x="456" 
d="M355 0l-119 217l-76 -90v-127h-85v567l85 6v-329l168 196h94l-134 -160l153 -280h-86z" />
    <glyph glyph-name="kcommaaccent" unicode="&#x137;" horiz-adv-x="456" 
d="M288 280l153 -280h-86l-119 217l-76 -90v-127h-85v567l85 6v-329l168 196h94zM155 -198l34 170l66 -6l-20 -173z" />
    <glyph glyph-name="l" unicode="l" horiz-adv-x="267" 
d="M207 0c-92 0 -135 40 -135 148l1 439l85 5l-1 -420c0 -54 8 -87 57 -89c9 -1 18 -1 27 -1v-82h-34z" />
    <glyph glyph-name="lacute" unicode="&#x13a;" horiz-adv-x="318" 
d="M124 666l-28 53l167 118l42 -72zM223 0c-92 0 -135 40 -135 148l1 439l85 5l-1 -420c0 -54 8 -87 57 -89c9 -1 18 -1 27 -1v-82h-34z" />
    <glyph glyph-name="lcaron" unicode="&#x13e;" horiz-adv-x="373" 
d="M202 0c-92 0 -135 40 -135 148l1 439l85 5l-1 -420c0 -54 8 -87 57 -89c9 -1 18 -1 27 -1v-82h-34zM308 378l-62 2l3 211l81 -5z" />
    <glyph glyph-name="lcommaaccent" unicode="&#x13c;" horiz-adv-x="301" 
d="M207 0c-92 0 -135 40 -135 148l1 439l85 5l-1 -420c0 -54 8 -87 57 -89c9 -1 18 -1 27 -1v-82h-34zM170 -213l-80 9l34 170l66 -6z" />
    <glyph glyph-name="ldot" unicode="&#x140;" horiz-adv-x="378" 
d="M202 0c-92 0 -135 40 -135 148l1 439l85 5l-1 -420c0 -54 8 -87 57 -89c9 -1 18 -1 27 -1v-82h-34zM291 284c-28 0 -46 20 -46 48s18 46 46 46s48 -18 48 -46s-20 -48 -48 -48z" />
    <glyph glyph-name="lslash" unicode="&#x142;" horiz-adv-x="290" 
d="M165 172c0 -54 8 -87 57 -89c9 -1 18 -1 27 -1v-82h-34c-92 0 -135 40 -135 148v84l-60 -58l-51 52l111 108l1 253l85 5v-176l70 68l52 -52l-123 -118v-142z" />
    <glyph glyph-name="m" unicode="m" horiz-adv-x="744" 
d="M518 445c92 10 158 -59 158 -155v-290h-85v267c0 67 -39 111 -100 100c-25 -5 -53 -24 -73 -48c1 -10 2 -19 2 -29v-290h-85v267c0 67 -39 111 -100 100c-27 -5 -56 -27 -77 -53l2 -314h-85v439l79 5l3 -60c27 31 64 56 105 61c63 7 114 -24 140 -75c27 37 69 69 116 75z
" />
    <glyph glyph-name="n" unicode="n" horiz-adv-x="503" 
d="M274 445c92 10 158 -59 158 -155v-290h-85v267c0 67 -39 111 -100 100c-32 -6 -67 -35 -87 -68v-299h-85v440l82 4l3 -72c26 36 67 67 114 73z" />
    <glyph glyph-name="nacute" unicode="&#x144;" horiz-adv-x="503" 
d="M421 614l-181 -99l-28 53l167 118zM274 445c92 10 158 -59 158 -155v-290h-85v267c0 67 -39 111 -100 100c-32 -6 -67 -35 -87 -68v-299h-85v440l82 4l3 -72c26 36 67 67 114 73z" />
    <glyph glyph-name="ncaron" unicode="&#x148;" horiz-adv-x="503" 
d="M379 624l-124 -110l-123 113l45 45l78 -73l80 72zM274 445c92 10 158 -59 158 -155v-290h-85v267c0 67 -39 111 -100 100c-32 -6 -67 -35 -87 -68v-299h-85v440l82 4l3 -72c26 36 67 67 114 73z" />
    <glyph glyph-name="ncommaaccent" unicode="&#x146;" horiz-adv-x="503" 
d="M274 445c92 10 158 -59 158 -155v-290h-85v267c0 67 -39 111 -100 100c-32 -6 -67 -35 -87 -68v-299h-85v440l82 4l3 -72c26 36 67 67 114 73zM181 -203l34 170l66 -6l-20 -173z" />
    <glyph glyph-name="eng" unicode="&#x14b;" horiz-adv-x="492" 
d="M432 209h2v-278c0 -97 -60 -146 -137 -146c-37 0 -59 11 -74 18l20 75c11 -4 18 -8 44 -7c35 0 62 25 62 78v51h-2v267c0 67 -39 111 -100 100c-32 -6 -67 -35 -87 -68v-299h-85v440l82 4l3 -72c26 36 67 67 114 73c92 10 158 -59 158 -155v-81z" />
    <glyph glyph-name="ntilde" unicode="&#xf1;" horiz-adv-x="503" 
d="M212 571c-16 0 -25 -19 -33 -39l-59 31c8 24 32 75 78 75c38 0 70 -35 98 -35c19 0 26 13 36 37l61 -29c-8 -21 -31 -77 -82 -77c-43 1 -71 37 -99 37zM274 445c92 10 158 -59 158 -155v-290h-85v267c0 67 -39 111 -100 100c-32 -6 -67 -35 -87 -68v-299h-85v440l82 4
l3 -72c26 36 67 67 114 73z" />
    <glyph glyph-name="o" unicode="o" horiz-adv-x="484" 
d="M242 -5c-118 0 -200 97 -200 219v12c0 122 82 219 200 219c117 0 201 -97 201 -219v-12c0 -122 -84 -219 -201 -219zM241 69c70 0 117 60 117 145v12c0 86 -47 145 -116 145s-116 -59 -116 -145v-12c0 -85 47 -145 115 -145z" />
    <glyph glyph-name="oacute" unicode="&#xf3;" horiz-adv-x="484" 
d="M226 515l-28 53l167 118l42 -72zM242 -5c-118 0 -200 97 -200 219v12c0 122 82 219 200 219c117 0 201 -97 201 -219v-12c0 -122 -84 -219 -201 -219zM241 69c70 0 117 60 117 145v12c0 86 -47 145 -116 145s-116 -59 -116 -145v-12c0 -85 47 -145 115 -145z" />
    <glyph glyph-name="uni01D2" unicode="&#x1d2;" horiz-adv-x="484" 
d="M365 624l-124 -110l-123 113l45 45l78 -73l80 72zM242 445c117 0 201 -97 201 -219v-12c0 -122 -84 -219 -201 -219c-118 0 -200 97 -200 219v12c0 122 82 219 200 219zM358 214v12c0 86 -47 145 -116 145s-116 -59 -116 -145v-12c0 -85 47 -145 115 -145
c70 0 117 60 117 145z" />
    <glyph glyph-name="ocircumflex" unicode="&#xf4;" horiz-adv-x="484" 
d="M241 588l-78 -72l-45 45l123 113l124 -111l-44 -47zM242 445c117 0 201 -97 201 -219v-12c0 -122 -84 -219 -201 -219c-118 0 -200 97 -200 219v12c0 122 82 219 200 219zM358 214v12c0 86 -47 145 -116 145s-116 -59 -116 -145v-12c0 -85 47 -145 115 -145
c70 0 117 60 117 145z" />
    <glyph glyph-name="odieresis" unicode="&#xf6;" horiz-adv-x="484" 
d="M150 539c-28 0 -46 20 -46 48s18 46 46 46s48 -18 48 -46s-20 -48 -48 -48zM319 539c-28 0 -46 20 -46 48s18 46 46 46s48 -18 48 -46s-20 -48 -48 -48zM242 -5c-118 0 -200 97 -200 219v12c0 122 82 219 200 219c117 0 201 -97 201 -219v-12c0 -122 -84 -219 -201 -219z
M241 69c70 0 117 60 117 145v12c0 86 -47 145 -116 145s-116 -59 -116 -145v-12c0 -85 47 -145 115 -145z" />
    <glyph glyph-name="ograve" unicode="&#xf2;" horiz-adv-x="484" 
d="M253 514l-182 99l43 73l168 -118zM242 -5c-118 0 -200 97 -200 219v12c0 122 82 219 200 219c117 0 201 -97 201 -219v-12c0 -122 -84 -219 -201 -219zM241 69c70 0 117 60 117 145v12c0 86 -47 145 -116 145s-116 -59 -116 -145v-12c0 -85 47 -145 115 -145z" />
    <glyph glyph-name="ohungarumlaut" unicode="&#x151;" horiz-adv-x="484" 
d="M194 506h-67l5 205l79 -5zM337 504l-67 2l12 203l79 -5zM242 -5c-118 0 -200 97 -200 219v12c0 122 82 219 200 219c117 0 201 -97 201 -219v-12c0 -122 -84 -219 -201 -219zM241 69c70 0 117 60 117 145v12c0 86 -47 145 -116 145s-116 -59 -116 -145v-12
c0 -85 47 -145 115 -145z" />
    <glyph glyph-name="omacron" unicode="&#x14d;" horiz-adv-x="484" 
d="M130 541v67h224v-67h-224zM242 -5c-118 0 -200 97 -200 219v12c0 122 82 219 200 219c117 0 201 -97 201 -219v-12c0 -122 -84 -219 -201 -219zM241 69c70 0 117 60 117 145v12c0 86 -47 145 -116 145s-116 -59 -116 -145v-12c0 -85 47 -145 115 -145z" />
    <glyph glyph-name="oslash" unicode="&#xf8;" horiz-adv-x="484" 
d="M455 405l-49 -50c24 -36 37 -80 37 -129v-12c0 -122 -84 -219 -201 -219c-55 0 -102 21 -136 55l-46 -46l-31 31l49 50c-23 36 -36 80 -36 129v12c0 122 82 219 200 219c54 0 101 -21 136 -55l46 47zM126 214c0 -25 4 -48 12 -68l185 188c-20 24 -48 37 -81 37
c-69 0 -116 -59 -116 -145v-12zM358 226c0 26 -4 49 -12 69l-185 -189c20 -23 48 -37 80 -37c70 0 117 60 117 145v12z" />
    <glyph glyph-name="otilde" unicode="&#xf5;" horiz-adv-x="484" 
d="M165 532l-59 31c8 24 32 75 78 75c38 0 70 -35 98 -35c19 0 26 13 36 37l61 -29c-8 -21 -31 -77 -82 -77c-43 1 -71 37 -99 37c-16 0 -25 -19 -33 -39zM242 -5c-118 0 -200 97 -200 219v12c0 122 82 219 200 219c117 0 201 -97 201 -219v-12c0 -122 -84 -219 -201 -219z
M241 69c70 0 117 60 117 145v12c0 86 -47 145 -116 145s-116 -59 -116 -145v-12c0 -85 47 -145 115 -145z" />
    <glyph glyph-name="oe" unicode="&#x153;" horiz-adv-x="828" 
d="M775 193h-300v-7c6 -65 48 -119 109 -119c52 0 92 31 107 77l78 -22c-26 -73 -95 -127 -184 -127c-79 0 -138 47 -168 117c-31 -70 -93 -117 -170 -117c-118 0 -200 97 -200 219v12c0 122 82 219 200 219c76 0 139 -47 170 -116c29 69 89 116 168 116
c117 0 192 -97 192 -214c0 -23 -1 -29 -2 -38zM584 373c-59 0 -103 -48 -106 -109h216c0 69 -52 109 -110 109zM364 214v12c0 81 -48 140 -117 140s-116 -59 -116 -140v-12c0 -81 47 -140 115 -140c70 0 118 59 118 140z" />
    <glyph glyph-name="p" unicode="p" horiz-adv-x="481" 
d="M264 445c106 18 177 -94 177 -226c0 -147 -93 -226 -180 -217c-44 5 -76 31 -101 64v-266l-85 5v636l82 5l3 -76c27 37 64 67 104 75zM249 76c60 -4 103 50 103 143c0 90 -40 166 -107 151c-32 -7 -62 -38 -85 -72v-159c23 -30 54 -61 89 -63z" />
    <glyph glyph-name="thorn" unicode="&#xfe;" horiz-adv-x="445" 
d="M227 445c106 18 177 -94 177 -226c0 -147 -93 -226 -180 -217c-37 4 -66 24 -89 50v-257l-85 5v790l85 5v-210c26 30 58 53 92 60zM212 76c60 -4 103 50 103 143c0 90 -40 166 -107 151c-27 -6 -52 -28 -73 -56v-190c21 -24 48 -46 77 -48z" />
    <glyph glyph-name="q" unicode="q" horiz-adv-x="486" 
d="M329 447l82 -5v-642l-85 5v270c-25 -34 -57 -68 -104 -75c-106 -17 -181 78 -181 218c0 132 78 250 192 225c44 -8 71 -43 93 -77v28zM235 73c34 3 61 30 91 68v156c-25 36 -52 65 -84 72c-68 12 -114 -58 -114 -152c0 -92 42 -148 107 -144z" />
    <glyph glyph-name="r" unicode="r" horiz-adv-x="303" 
d="M154 368c25 53 68 84 134 76l-1 -90c-78 9 -127 -39 -133 -133l-1 -221h-85v441l83 4l3 -73v-4z" />
    <glyph glyph-name="racute" unicode="&#x155;" horiz-adv-x="303" 
d="M312 619l-181 -99l-28 53l167 118zM154 368c25 53 68 84 134 76l-1 -90c-78 9 -127 -39 -133 -133l-1 -221h-85v441l83 4l3 -73v-4z" />
    <glyph glyph-name="rcaron" unicode="&#x159;" horiz-adv-x="303" 
d="M270 629l-124 -110l-123 113l45 45l78 -73l80 72zM154 368c25 53 68 84 134 76l-1 -90c-78 9 -127 -39 -133 -133l-1 -221h-85v441l83 4l3 -73v-4z" />
    <glyph glyph-name="rcommaaccent" unicode="&#x157;" horiz-adv-x="303" 
d="M154 368c25 53 68 84 134 76l-1 -90c-78 9 -127 -39 -133 -133l-1 -221h-85v441l83 4l3 -73v-4zM44 -203l34 170l66 -6l-20 -173z" />
    <glyph glyph-name="s" unicode="s" horiz-adv-x="409" 
d="M205 -5c-98 0 -154 71 -162 112l77 24c12 -26 35 -63 86 -63c55 0 78 35 74 62c-13 80 -229 53 -229 187c0 76 68 128 154 128c84 0 139 -53 161 -110l-76 -24c-7 28 -37 62 -83 62c-56 0 -73 -39 -71 -59c9 -75 228 -43 228 -190c0 -69 -65 -129 -159 -129z" />
    <glyph glyph-name="sacute" unicode="&#x15b;" horiz-adv-x="409" 
d="M186 510l-28 53l167 118l42 -72zM205 -5c-98 0 -154 71 -162 112l77 24c12 -26 35 -63 86 -63c55 0 78 35 74 62c-13 80 -229 53 -229 187c0 76 68 128 154 128c84 0 139 -53 161 -110l-76 -24c-7 28 -37 62 -83 62c-56 0 -73 -39 -71 -59c9 -75 228 -43 228 -190
c0 -69 -65 -129 -159 -129z" />
    <glyph glyph-name="scaron" unicode="&#x161;" horiz-adv-x="409" 
d="M325 619l-124 -110l-123 113l45 45l78 -73l80 72zM136 314c9 -75 228 -43 228 -190c0 -69 -65 -129 -159 -129c-98 0 -154 71 -162 112l77 24c12 -26 35 -63 86 -63c55 0 78 35 74 62c-13 80 -229 53 -229 187c0 76 68 128 154 128c84 0 139 -53 161 -110l-76 -24
c-7 28 -37 62 -83 62c-56 0 -73 -39 -71 -59z" />
    <glyph glyph-name="scedilla" unicode="&#x15f;" horiz-adv-x="409" 
d="M136 314c9 -75 228 -43 228 -190c0 -64 -56 -121 -140 -128l-5 -37c59 13 106 -23 106 -75c0 -59 -45 -92 -101 -92c-49 0 -79 26 -89 41l30 36c7 -8 24 -24 56 -24c24 0 46 14 46 41c0 26 -24 41 -59 41c-15 -1 -26 -1 -39 -2l1 73c-76 14 -120 73 -127 109l77 24
c12 -26 35 -63 86 -63c55 0 78 35 74 62c-13 80 -229 53 -229 187c0 76 68 128 154 128c84 0 139 -53 161 -110l-76 -24c-7 28 -37 62 -83 62c-56 0 -73 -39 -71 -59z" />
    <glyph glyph-name="scommaaccent" unicode="&#x219;" horiz-adv-x="409" 
d="M205 -5c-98 0 -154 71 -162 112l77 24c12 -26 35 -63 86 -63c55 0 78 35 74 62c-13 80 -229 53 -229 187c0 76 68 128 154 128c84 0 139 -53 161 -110l-76 -24c-7 28 -37 62 -83 62c-56 0 -73 -39 -71 -59c9 -75 228 -43 228 -190c0 -69 -65 -129 -159 -129zM210 -214
l-80 9l34 170l66 -6z" />
    <glyph glyph-name="germandbls" unicode="&#xdf;" horiz-adv-x="507" 
d="M82 0v406c0 118 56 178 159 178c97 0 165 -52 165 -125c0 -67 -50 -97 -50 -122c0 -39 114 -61 114 -189c0 -92 -64 -153 -149 -153c-41 0 -75 15 -100 33l15 73c13 -10 35 -22 65 -22c37 1 83 23 83 87c-1 92 -120 97 -120 165c0 39 59 75 59 124c0 38 -33 62 -81 62
c-49 0 -78 -31 -78 -94l-1 -423h-81z" />
    <glyph glyph-name="t" unicode="t" horiz-adv-x="307" 
d="M236 83c10 -1 19 -1 28 -1v-81c-13 -1 -23 -2 -34 -2c-91 0 -135 41 -135 149v202h-55v82h56v127l85 4v-131h79v-82h-80v-178c0 -55 8 -88 56 -89z" />
    <glyph glyph-name="tbar" unicode="&#x167;" horiz-adv-x="307" 
d="M265 208h-85v-36c0 -55 8 -88 56 -89c10 -1 19 -1 28 -1v-81c-13 -1 -23 -2 -34 -2c-91 0 -135 41 -135 149v60h-51v72h51v70h-55v82h56v127l85 4v-131h79v-82h-80v-70h86z" />
    <glyph glyph-name="tcaron" unicode="&#x165;" horiz-adv-x="406" 
d="M328 593l81 -5l-22 -208l-62 2zM186 172c0 -55 8 -88 56 -89c10 -1 19 -1 28 -1v-81c-13 -1 -23 -2 -34 -2c-91 0 -135 41 -135 149v202h-55v82h56v127l85 4v-131h79v-82h-80v-178z" />
    <glyph glyph-name="uni0163" unicode="&#x163;" horiz-adv-x="307" 
d="M209 -34c59 13 106 -23 106 -75c0 -59 -45 -92 -101 -92c-49 0 -79 26 -89 41l30 36c7 -8 24 -24 56 -24c24 0 46 14 46 41c0 26 -24 41 -59 41c-15 -1 -26 -1 -39 -2l1 79c-44 19 -65 62 -65 137v202h-55v82h56v127l85 4v-131h79v-82h-80v-178c0 -55 8 -88 56 -89
c10 -1 19 -1 28 -1v-81c-13 -1 -23 -2 -34 -2h-16z" />
    <glyph glyph-name="uni021B" unicode="&#x21b;" horiz-adv-x="307" 
d="M236 83c10 -1 19 -1 28 -1v-81c-13 -1 -23 -2 -34 -2c-91 0 -135 41 -135 149v202h-55v82h56v127l85 4v-131h79v-82h-80v-178c0 -55 8 -88 56 -89zM120 -198l34 170l66 -6l-20 -173z" />
    <glyph glyph-name="u" unicode="u" horiz-adv-x="500" 
d="M341 440h85v-440h-83l-3 64c-29 -30 -69 -58 -116 -64c-94 -9 -158 56 -158 155v282l85 4v-261c0 -77 39 -114 100 -100c36 8 67 38 89 72z" />
    <glyph glyph-name="uacute" unicode="&#xfa;" horiz-adv-x="500" 
d="M416 613l-181 -99l-28 53l167 118zM341 440h85v-440h-83l-3 64c-29 -30 -69 -58 -116 -64c-94 -9 -158 56 -158 155v282l85 4v-261c0 -77 39 -114 100 -100c36 8 67 38 89 72z" />
    <glyph glyph-name="uni01D4" unicode="&#x1d4;" horiz-adv-x="500" 
d="M374 623l-124 -110l-123 113l45 45l78 -73l80 72zM341 440h85v-440h-83l-3 64c-29 -30 -69 -58 -116 -64c-94 -9 -158 56 -158 155v282l85 4v-261c0 -77 39 -114 100 -100c36 8 67 38 89 72z" />
    <glyph glyph-name="ucircumflex" unicode="&#xfb;" horiz-adv-x="500" 
d="M250 587l-78 -72l-45 45l123 113l124 -111l-44 -47zM341 440h85v-440h-83l-3 64c-29 -30 -69 -58 -116 -64c-94 -9 -158 56 -158 155v282l85 4v-261c0 -77 39 -114 100 -100c36 8 67 38 89 72z" />
    <glyph glyph-name="udieresis" unicode="&#xfc;" horiz-adv-x="500" 
d="M159 538c-28 0 -46 20 -46 48s18 46 46 46s48 -18 48 -46s-20 -48 -48 -48zM328 538c-28 0 -46 20 -46 48s18 46 46 46s48 -18 48 -46s-20 -48 -48 -48zM341 440h85v-440h-83l-3 64c-29 -30 -69 -58 -116 -64c-94 -9 -158 56 -158 155v282l85 4v-261
c0 -77 39 -114 100 -100c36 8 67 38 89 72z" />
    <glyph glyph-name="ugrave" unicode="&#xf9;" horiz-adv-x="500" 
d="M291 567l-29 -54l-182 99l43 73zM341 440h85v-440h-83l-3 64c-29 -30 -69 -58 -116 -64c-94 -9 -158 56 -158 155v282l85 4v-261c0 -77 39 -114 100 -100c36 8 67 38 89 72z" />
    <glyph glyph-name="uhungarumlaut" unicode="&#x171;" horiz-adv-x="500" 
d="M220 705l-17 -200h-67l5 205zM370 703l-24 -200l-67 2l12 203zM341 440h85v-440h-83l-3 64c-29 -30 -69 -58 -116 -64c-94 -9 -158 56 -158 155v282l85 4v-261c0 -77 39 -114 100 -100c36 8 67 38 89 72z" />
    <glyph glyph-name="umacron" unicode="&#x16b;" horiz-adv-x="500" 
d="M363 607v-67h-224v67h224zM341 440h85v-440h-83l-3 64c-29 -30 -69 -58 -116 -64c-94 -9 -158 56 -158 155v282l85 4v-261c0 -77 39 -114 100 -100c36 8 67 38 89 72z" />
    <glyph glyph-name="uogonek" unicode="&#x173;" horiz-adv-x="500" 
d="M426 0c-46 -26 -81 -50 -102 -78c-38 -51 16 -96 65 -48l32 -38c-86 -82 -195 -8 -147 85c17 35 42 59 77 79h-8l-3 64c-29 -30 -69 -58 -116 -64c-94 -9 -158 56 -158 155v282l85 4v-261c0 -77 39 -114 100 -100c36 8 67 38 89 72l1 288h85v-440z" />
    <glyph glyph-name="uring" unicode="&#x16f;" horiz-adv-x="500" 
d="M251 506c-50 0 -88 41 -88 88c0 49 38 88 88 88c48 0 87 -39 87 -88c0 -47 -39 -88 -87 -88zM250 630c-20 0 -35 -16 -35 -36s15 -35 35 -35s34 15 34 35s-14 36 -34 36zM341 440h85v-440h-83l-3 64c-29 -30 -69 -58 -116 -64c-94 -9 -158 56 -158 155v282l85 4v-261
c0 -77 39 -114 100 -100c36 8 67 38 89 72z" />
    <glyph glyph-name="v" unicode="v" horiz-adv-x="433" 
d="M332 442l82 -4l-151 -438h-93l-151 438l83 4l115 -354z" />
    <glyph glyph-name="w" unicode="w" horiz-adv-x="622" 
d="M520 444l80 -5l-119 -439h-84l-86 303l-86 -303h-84l-119 439l80 5l88 -342l93 331h57l92 -327z" />
    <glyph glyph-name="wacute" unicode="&#x1e83;" horiz-adv-x="622" 
d="M476 606l-181 -99l-28 53l167 118zM520 444l80 -5l-119 -439h-84l-86 303l-86 -303h-84l-119 439l80 5l88 -342l93 331h57l92 -327z" />
    <glyph glyph-name="wcircumflex" unicode="&#x175;" horiz-adv-x="622" 
d="M310 580l-78 -72l-45 45l123 113l124 -111l-44 -47zM520 444l80 -5l-119 -439h-84l-86 303l-86 -303h-84l-119 439l80 5l88 -342l93 331h57l92 -327z" />
    <glyph glyph-name="wdieresis" unicode="&#x1e85;" horiz-adv-x="622" 
d="M219 531c-28 0 -46 20 -46 48s18 46 46 46s48 -18 48 -46s-20 -48 -48 -48zM388 531c-28 0 -46 20 -46 48s18 46 46 46s48 -18 48 -46s-20 -48 -48 -48zM520 444l80 -5l-119 -439h-84l-86 303l-86 -303h-84l-119 439l80 5l88 -342l93 331h57l92 -327z" />
    <glyph glyph-name="wgrave" unicode="&#x1e81;" horiz-adv-x="622" 
d="M351 560l-29 -54l-182 99l43 73zM520 444l80 -5l-119 -439h-84l-86 303l-86 -303h-84l-119 439l80 5l88 -342l93 331h57l92 -327z" />
    <glyph glyph-name="x" unicode="x" horiz-adv-x="464" 
d="M438 437l-157 -218l154 -219h-92l-112 162l-111 -162h-92l154 219l-154 219l91 5l112 -166l116 166z" />
    <glyph glyph-name="y" unicode="y" horiz-adv-x="496" 
d="M336 440h85v-450c0 -126 -82 -198 -196 -198c-69 0 -128 38 -148 63l40 61c18 -20 59 -46 108 -46c64 0 112 43 112 120v70c-29 -29 -68 -54 -113 -60c-94 -9 -158 56 -158 155v282l85 4v-261c0 -77 39 -114 100 -100c34 8 64 35 86 67z" />
    <glyph glyph-name="yacute" unicode="&#xfd;" horiz-adv-x="496" 
d="M411 604l-181 -99l-28 53l167 118zM336 440h85v-450c0 -126 -82 -198 -196 -198c-69 0 -128 38 -148 63l40 61c18 -20 59 -46 108 -46c64 0 112 43 112 120v70c-29 -29 -68 -54 -113 -60c-94 -9 -158 56 -158 155v282l85 4v-261c0 -77 39 -114 100 -100c34 8 64 35 86 67
z" />
    <glyph glyph-name="ycircumflex" unicode="&#x177;" horiz-adv-x="496" 
d="M245 578l-78 -72l-45 45l123 113l124 -111l-44 -47zM336 440h85v-450c0 -126 -82 -198 -196 -198c-69 0 -128 38 -148 63l40 61c18 -20 59 -46 108 -46c64 0 112 43 112 120v70c-29 -29 -68 -54 -113 -60c-94 -9 -158 56 -158 155v282l85 4v-261c0 -77 39 -114 100 -100
c34 8 64 35 86 67z" />
    <glyph glyph-name="ydieresis" unicode="&#xff;" horiz-adv-x="496" 
d="M154 529c-28 0 -46 20 -46 48s18 46 46 46s48 -18 48 -46s-20 -48 -48 -48zM323 529c-28 0 -46 20 -46 48s18 46 46 46s48 -18 48 -46s-20 -48 -48 -48zM336 440h85v-450c0 -126 -82 -198 -196 -198c-69 0 -128 38 -148 63l40 61c18 -20 59 -46 108 -46
c64 0 112 43 112 120v70c-29 -29 -68 -54 -113 -60c-94 -9 -158 56 -158 155v282l85 4v-261c0 -77 39 -114 100 -100c34 8 64 35 86 67z" />
    <glyph glyph-name="ygrave" unicode="&#x1ef3;" horiz-adv-x="496" 
d="M286 558l-29 -54l-182 99l43 73zM336 440h85v-450c0 -126 -82 -198 -196 -198c-69 0 -128 38 -148 63l40 61c18 -20 59 -46 108 -46c64 0 112 43 112 120v70c-29 -29 -68 -54 -113 -60c-94 -9 -158 56 -158 155v282l85 4v-261c0 -77 39 -114 100 -100c34 8 64 35 86 67z
" />
    <glyph glyph-name="z" unicode="z" horiz-adv-x="409" 
d="M358 440v-75l-205 -285h205v-80h-307v75l205 285h-205v80h307z" />
    <glyph glyph-name="zacute" unicode="&#x17a;" horiz-adv-x="409" 
d="M372 609l-181 -99l-28 53l167 118zM51 360v80h307v-75l-205 -285h205v-80h-307v75l205 285h-205z" />
    <glyph glyph-name="zcaron" unicode="&#x17e;" horiz-adv-x="409" 
d="M330 619l-124 -110l-123 113l45 45l78 -73l80 72zM358 440v-75l-205 -285h205v-80h-307v75l205 285h-205v80h307z" />
    <glyph glyph-name="zdotaccent" unicode="&#x17c;" horiz-adv-x="409" 
d="M206 506c-31 0 -53 22 -53 55c0 31 22 53 53 53c33 0 55 -22 55 -53c0 -33 -22 -55 -55 -55zM358 440v-75l-205 -285h205v-80h-307v75l205 285h-205v80h307z" />
    <glyph glyph-name="f_f.dlig" horiz-adv-x="566" 
d="M92 467c0 87 60 135 136 135c25 0 56 -6 71 -13l-19 -66c-11 3 -23 7 -44 6c-31 -2 -59 -26 -59 -67v-37h87v-73h-87v-352h-85v352h-53v73h53v42zM519 529c-31 -2 -59 -26 -59 -67v-37h87v-73h-87v-352h-85v352h-53v73h53v42c0 87 60 135 136 135c25 0 56 -6 71 -13
l-19 -66c-11 3 -23 7 -44 6z" />
    <glyph glyph-name="f_f_i.dlig" horiz-adv-x="806" 
d="M92 467c0 87 60 135 136 135c25 0 56 -6 71 -13l-19 -66c-11 3 -23 7 -44 6c-31 -2 -59 -26 -59 -67v-37h87v-73h-87v-352h-85v352h-53v73h53v42zM371 467c0 87 60 135 136 135c25 0 56 -6 71 -13l-19 -66c-11 3 -23 7 -44 6c-31 -2 -59 -26 -59 -67v-37h87v-73h-87v-352
h-85v352h-53v73h53v42zM681 485c-31 0 -53 22 -53 55c0 31 22 53 53 53c33 0 55 -22 55 -53c0 -33 -22 -55 -55 -55zM640 0v431l85 5v-436h-85z" />
    <glyph glyph-name="zero" unicode="0" horiz-adv-x="523" 
d="M262 -3c-116 0 -213 91 -213 273v20c0 182 97 274 213 274s212 -91 212 -274v-20c0 -182 -95 -273 -212 -273zM262 76c69 0 128 54 128 194v20c0 141 -58 194 -128 194c-69 0 -129 -53 -129 -194v-20c0 -140 59 -194 129 -194z" />
    <glyph glyph-name="one" unicode="1" horiz-adv-x="291" 
d="M29 551l173 11v-562h-86v474l-87 -5v82z" />
    <glyph glyph-name="two" unicode="2" horiz-adv-x="436" 
d="M162 81h235v-81h-348v71l197 232c29 36 51 70 50 112c0 44 -34 76 -76 76c-49 0 -76 -32 -86 -77l-78 21c19 83 79 135 164 135c91 0 162 -66 162 -155c1 -61 -32 -105 -69 -152z" />
    <glyph glyph-name="three" unicode="3" horiz-adv-x="452" 
d="M250 340c96 3 158 -75 158 -161c0 -102 -82 -184 -184 -184c-92 0 -162 68 -177 138l76 23c7 -38 44 -84 99 -84c59 0 104 48 104 107c0 58 -42 104 -95 106c-22 0 -36 -6 -55 -13l-33 59l149 152h-231v77h329v-82z" />
    <glyph glyph-name="four" unicode="4" horiz-adv-x="465" 
d="M421 206v-80h-46v-126h-85l1 126h-257l98 434h81l-76 -354h154l1 211l83 -4v-207h46z" />
    <glyph glyph-name="five" unicode="5" horiz-adv-x="457" 
d="M251 349c89 -1 162 -74 162 -170c0 -100 -82 -184 -184 -184c-92 0 -163 68 -178 138l75 23c8 -38 45 -84 101 -84c59 0 104 49 104 107c0 59 -45 107 -104 107c-33 0 -63 -15 -81 -36l-71 42l17 267h288v-79h-209l-9 -155c27 16 59 24 89 24z" />
    <glyph glyph-name="six" unicode="6" horiz-adv-x="474" 
d="M258 365c110 0 171 -89 171 -177c0 -107 -73 -192 -193 -192c-114 0 -195 88 -191 199c0 108 118 258 182 365h88c-52 -85 -94 -153 -126 -209c21 9 44 14 69 14zM236 71c67 0 109 52 109 114s-42 112 -109 112c-48 0 -87 -28 -102 -68c-5 -16 -7 -30 -7 -44
c0 -62 42 -114 109 -114z" />
    <glyph glyph-name="seven" unicode="7" horiz-adv-x="380" 
d="M34 560h337l-198 -560h-87l170 478h-222v82z" />
    <glyph glyph-name="eight" unicode="8" horiz-adv-x="484" 
d="M343 313c58 -28 92 -82 92 -145c0 -92 -71 -173 -193 -173c-117 0 -193 78 -193 173c0 63 34 116 92 145c-36 25 -58 64 -58 107c0 81 63 145 159 145c95 0 159 -64 159 -145c0 -43 -22 -82 -58 -107zM242 497c-50 0 -83 -34 -83 -79s35 -78 83 -78c50 0 84 34 84 78
c0 46 -35 79 -84 79zM242 65c78 0 111 52 111 107c0 50 -33 103 -111 103s-111 -53 -111 -103c0 -57 38 -107 111 -107z" />
    <glyph glyph-name="nine" unicode="9" horiz-adv-x="481" 
d="M239 564c119 0 198 -90 193 -199c0 -99 -107 -233 -178 -365h-87c50 85 90 153 121 209c-21 -9 -43 -14 -68 -14c-103 0 -172 76 -172 179c0 105 77 190 191 190zM239 265c50 0 90 30 105 73c3 15 5 28 5 41c0 61 -43 112 -109 112c-68 0 -109 -51 -109 -113
s41 -113 108 -113z" />
    <glyph glyph-name="asterisk" unicode="*" horiz-adv-x="424" 
d="M364 487l-124 -52l124 -52l-31 -53l-104 78l12 -131h-58l12 131l-104 -78l-31 53l124 52l-124 52l31 53l104 -78l-13 131h59l-12 -131l104 78z" />
    <glyph glyph-name="backslash" unicode="\" horiz-adv-x="301" 
d="M188 0l-192 659h82l192 -659h-82z" />
    <glyph glyph-name="periodcentered" unicode="&#xb7;" horiz-adv-x="145" 
d="M91 216c-31 0 -52 22 -52 52c0 31 21 52 52 52c30 0 51 -21 51 -52c0 -30 -21 -52 -51 -52z" />
    <glyph glyph-name="bullet" unicode="&#x2022;" horiz-adv-x="195" 
d="M98 171c-43 0 -74 31 -74 74c0 42 31 72 74 72c41 0 72 -30 72 -72c0 -43 -31 -74 -72 -74z" />
    <glyph glyph-name="colon" unicode=":" horiz-adv-x="228" 
d="M114 323c-31 0 -52 22 -52 52c0 31 21 52 52 52c30 0 51 -21 51 -52c0 -30 -21 -52 -51 -52zM116 1c-31 0 -52 22 -52 52c0 31 21 52 52 52c30 0 51 -21 51 -52c0 -30 -21 -52 -51 -52z" />
    <glyph glyph-name="comma" unicode="," horiz-adv-x="173" 
d="M109 -125l-78 10l48 227l63 -6z" />
    <glyph glyph-name="ellipsis" unicode="&#x2026;" horiz-adv-x="610" 
d="M99 -1c-31 0 -52 22 -52 52c0 31 21 52 52 52c30 0 51 -21 51 -52c0 -30 -21 -52 -51 -52zM300 -1c-31 0 -52 22 -52 52c0 31 21 52 52 52c30 0 51 -21 51 -52c0 -30 -21 -52 -51 -52zM502 -1c-31 0 -52 22 -52 52c0 31 21 52 52 52c30 0 51 -21 51 -52
c0 -30 -21 -52 -51 -52z" />
    <glyph glyph-name="exclam" unicode="!" horiz-adv-x="213" 
d="M82 176l-19 440h92l-14 -440h-59zM115 -2c-31 0 -52 22 -52 52c0 31 21 52 52 52c30 0 51 -21 51 -52c0 -30 -21 -52 -51 -52z" />
    <glyph glyph-name="exclamdown" unicode="&#xa1;" horiz-adv-x="224" 
d="M115 427c-31 0 -52 22 -52 52c0 31 21 52 52 52c30 0 51 -21 51 -52c0 -30 -21 -52 -51 -52zM159 -102h-93l17 439h58z" />
    <glyph glyph-name="uni203D" unicode="&#x203d;" horiz-adv-x="390" 
d="M177 626c117 0 180 -80 180 -170c0 -82 -48 -121 -86 -156c-28 -25 -55 -49 -57 -88c-1 -17 -1 -29 -1 -44l-85 7v29l-12 231l88 6l-5 -98c6 5 12 10 17 15c32 28 55 55 55 94c0 55 -37 91 -90 91s-87 -36 -91 -88l-84 22c14 90 84 149 171 149zM175 101
c30 0 51 -21 51 -52c0 -30 -21 -52 -51 -52c-31 0 -52 22 -52 52c0 31 21 52 52 52z" />
    <glyph glyph-name="numbersign" unicode="#" horiz-adv-x="586" 
d="M564 363h-93l-37 -167h99l-17 -75h-99l-27 -121h-80l27 121h-161l-27 -121h-80l27 121h-95l17 75h95l37 167h-98l17 75h98l27 123h80l-27 -123h161l27 123h80l-27 -123h93zM354 196l37 167h-161l-37 -167h161z" />
    <glyph glyph-name="period" unicode="." horiz-adv-x="197" 
d="M99 -1c-31 0 -52 22 -52 52c0 31 21 52 52 52c30 0 51 -21 51 -52c0 -30 -21 -52 -51 -52z" />
    <glyph glyph-name="question" unicode="?" horiz-adv-x="383" 
d="M213 168l-85 7c0 12 0 25 1 40c4 78 52 112 87 143c32 28 55 55 55 94c0 55 -37 91 -90 91s-87 -36 -91 -88l-84 22c14 90 84 149 171 149c117 0 180 -80 180 -170c0 -82 -48 -121 -86 -156c-28 -25 -55 -49 -57 -88c-1 -17 -1 -29 -1 -44zM175 -3c-31 0 -52 22 -52 52
c0 31 21 52 52 52c30 0 51 -21 51 -52c0 -30 -21 -52 -51 -52z" />
    <glyph glyph-name="questiondown" unicode="&#xbf;" horiz-adv-x="450" 
d="M247 368c-31 0 -52 22 -52 52c0 31 21 52 52 52c30 0 51 -21 51 -52c0 -30 -21 -52 -51 -52zM200 310l86 -8c0 -12 0 -25 -1 -40c-4 -80 -52 -117 -87 -148c-31 -29 -54 -55 -54 -94c0 -55 36 -90 89 -90s86 36 90 88l85 -23c-14 -89 -84 -149 -171 -149
c-118 0 -180 80 -180 170c0 83 47 121 85 156c28 26 55 51 57 93c1 17 1 30 1 45z" />
    <glyph glyph-name="quotedbl" unicode="&#x22;" horiz-adv-x="338" 
d="M17 401l-10 239l86 4l-9 -243h-67zM217 401l-10 239l86 4l-9 -243h-67z" />
    <glyph glyph-name="quotesingle" unicode="'" horiz-adv-x="130" 
d="M27 401l-10 239l86 4l-9 -243h-67z" />
    <glyph glyph-name="semicolon" unicode=";" horiz-adv-x="211" 
d="M123 284c-31 0 -52 22 -52 52c0 31 21 52 52 52c30 0 51 -21 51 -52c0 -30 -21 -52 -51 -52zM109 -121l-78 10l48 227l63 -6z" />
    <glyph glyph-name="slash" unicode="/" horiz-adv-x="301" 
d="M31 0l192 659h82l-192 -659h-82z" />
    <glyph glyph-name="underscore" unicode="_" horiz-adv-x="685" 
d="M89 -95l8 80h499l-8 -80h-499z" />
    <glyph glyph-name="braceleft" unicode="{" horiz-adv-x="327" 
d="M232 -124c-57 0 -104 27 -104 92v164c0 53 -18 97 -78 104v93c61 7 78 39 78 104v159c0 60 47 93 104 93c20 0 34 -1 53 -6l-5 -82c-9 0 -16 0 -25 -1c-27 -4 -39 -24 -39 -51v-165c0 -58 -37 -91 -80 -97v-5c43 -7 78 -45 78 -96v-168c0 -28 11 -47 41 -51
c9 -1 17 -1 25 -1l5 -80c-16 -4 -34 -6 -53 -6z" />
    <glyph glyph-name="braceright" unicode="}" horiz-adv-x="327" 
d="M95 -124c-20 0 -37 2 -54 6l5 80c9 -1 16 0 25 1c30 3 41 22 41 50v169c0 50 35 88 79 96v4c-44 7 -80 39 -80 97v166c0 26 -12 46 -40 50c-8 1 -15 2 -25 1l-5 83c20 4 33 5 54 5c57 0 104 -32 104 -93v-159c0 -64 16 -96 78 -104v-92c-60 -8 -78 -51 -78 -104v-164
c0 -65 -48 -92 -104 -92z" />
    <glyph glyph-name="bracketleft" unicode="[" horiz-adv-x="306" 
d="M95 -127v818h151v-85l-66 -3v-641l66 -4v-85h-151z" />
    <glyph glyph-name="bracketright" unicode="]" horiz-adv-x="306" 
d="M59 -127v85l67 4v641l-67 4v85h152v-819h-152z" />
    <glyph glyph-name="parenleft" unicode="(" horiz-adv-x="271" 
d="M173 -107c-80 117 -118 261 -118 400c0 145 40 288 122 405l70 -46c-71 -102 -110 -233 -110 -359c0 -125 39 -252 106 -354z" />
    <glyph glyph-name="parenright" unicode=")" horiz-adv-x="271" 
d="M98 -107l-70 46c67 102 106 229 106 354c0 126 -40 257 -110 359l70 46c81 -117 122 -260 122 -405c0 -139 -39 -283 -118 -400z" />
    <glyph glyph-name="emdash" unicode="&#x2014;" horiz-adv-x="585" 
d="M79 206l8 79h419l-9 -79h-418z" />
    <glyph glyph-name="endash" unicode="&#x2013;" horiz-adv-x="507" 
d="M79 206l8 79h341l-8 -79h-341z" />
    <glyph glyph-name="uni2015" unicode="&#x2015;" horiz-adv-x="498" 
d="M-3 291v57h502v-57h-502z" />
    <glyph glyph-name="hyphen" unicode="-" horiz-adv-x="392" 
d="M79 211l17 80h217l-17 -80h-217z" />
    <glyph glyph-name="quotedblleft" unicode="&#x201c;" horiz-adv-x="365" 
d="M110 390l-83 11l43 236l67 -6zM299 390l-83 11l43 236l67 -6z" />
    <glyph glyph-name="quotedblright" unicode="&#x201d;" horiz-adv-x="363" 
d="M99 390l-67 5l25 241l83 -9zM288 390l-67 5l25 241l83 -9z" />
    <glyph glyph-name="quoteleft" unicode="&#x2018;" horiz-adv-x="177" 
d="M113 390l-83 11l43 236l67 -6z" />
    <glyph glyph-name="quoteright" unicode="&#x2019;" horiz-adv-x="175" 
d="M104 395l-67 5l25 241l83 -9z" />
    <glyph glyph-name="colon_parenleft.liga" horiz-adv-x="569" 
d="M441 -107c-80 117 -118 261 -118 400c0 145 40 288 122 405l70 -46c-71 -102 -110 -233 -110 -359c0 -125 39 -252 106 -354zM114 380c-31 0 -52 22 -52 52c0 31 21 52 52 52c30 0 51 -21 51 -52c0 -30 -21 -52 -51 -52zM116 58c-31 0 -52 22 -52 52c0 31 21 52 52 52
c30 0 51 -21 51 -52c0 -30 -21 -52 -51 -52z" />
    <glyph glyph-name="colon_parenright.liga" horiz-adv-x="550" 
d="M378 -107l-70 46c67 102 106 229 106 354c0 126 -40 257 -110 359l70 46c81 -117 122 -260 122 -405c0 -139 -39 -283 -118 -400zM114 382c-31 0 -52 22 -52 52c0 31 21 52 52 52c30 0 51 -21 51 -52c0 -30 -21 -52 -51 -52zM116 60c-31 0 -52 22 -52 52
c0 31 21 52 52 52c30 0 51 -21 51 -52c0 -30 -21 -52 -51 -52z" />
    <glyph glyph-name="exclam_question.liga" horiz-adv-x="390" 
d="M177 626c117 0 180 -80 180 -170c0 -82 -48 -121 -86 -156c-28 -25 -55 -49 -57 -88c-1 -17 -1 -29 -1 -44l-85 7v29l-12 231l88 6l-5 -98c6 5 12 10 17 15c32 28 55 55 55 94c0 55 -37 91 -90 91s-87 -36 -91 -88l-84 22c14 90 84 149 171 149zM175 101
c30 0 51 -21 51 -52c0 -30 -21 -52 -51 -52c-31 0 -52 22 -52 52c0 31 21 52 52 52z" />
    <glyph glyph-name="semicolon_parenright.liga" horiz-adv-x="544" 
d="M371 -107l-70 46c67 102 106 229 106 354c0 126 -40 257 -110 359l70 46c81 -117 122 -260 122 -405c0 -139 -39 -283 -118 -400zM123 384c-31 0 -52 22 -52 52c0 31 21 52 52 52c30 0 51 -21 51 -52c0 -30 -21 -52 -51 -52zM109 -21l-78 10l48 227l63 -6z" />
    <glyph glyph-name="space" unicode=" " horiz-adv-x="254" 
 />
    <glyph glyph-name="cent" unicode="&#xa2;" horiz-adv-x="448" 
d="M231 130c52 0 87 37 98 70l69 -43c-24 -49 -71 -89 -128 -102l4 -76l-81 2l5 73c-97 17 -161 106 -161 216v12c0 110 65 200 163 216l-6 75l80 2l-4 -78c60 -13 107 -57 129 -104l-70 -42c-11 33 -46 71 -97 71c-67 0 -114 -59 -114 -140v-12c0 -81 47 -140 113 -140z
" />
    <glyph glyph-name="dollar" unicode="$" horiz-adv-x="462" 
d="M281 315c65 -28 132 -65 132 -160c0 -75 -48 -140 -132 -156v-77h-84v77c-78 16 -130 75 -139 144l82 22c4 -33 25 -63 57 -77v174c-66 28 -134 64 -134 152c0 73 57 133 134 147v75h84v-76c71 -17 123 -71 132 -136l-78 -20c-7 34 -28 57 -54 69v-158zM157 410
c1 -25 17 -43 40 -57v119c-27 -13 -42 -38 -40 -62zM281 90c28 13 43 38 42 69c0 29 -17 48 -42 64v-133z" />
    <glyph glyph-name="Euro" unicode="&#x20ac;" horiz-adv-x="563" 
d="M452 160l71 -28c-35 -89 -111 -137 -199 -137c-100 0 -199 67 -227 200h-58v47h52c-1 9 -1 19 -1 29v18c0 7 0 14 1 21h-52v46h57c24 139 125 209 228 209c87 0 162 -50 198 -133l-70 -32c-24 54 -62 91 -131 91c-59 0 -121 -39 -141 -135h147v-46h-152
c-1 -7 -1 -14 -1 -21v-18c0 -10 0 -20 1 -29h152v-47h-145c22 -89 82 -126 139 -126c69 0 107 36 131 91z" />
    <glyph glyph-name="sterling" unicode="&#xa3;" horiz-adv-x="454" 
d="M393 94l27 -66c-37 -25 -63 -31 -95 -31c-70 0 -94 39 -153 39c-27 0 -58 -10 -92 -35l-46 61c61 50 95 112 95 168c0 13 -1 25 -3 36h-83v69h54c-15 28 -29 57 -29 103c0 98 79 168 175 168c79 0 146 -51 168 -121l-66 -30c-8 42 -51 79 -102 79
c-55 0 -101 -41 -101 -99c0 -37 19 -67 36 -100h133v-69h-108c1 -7 2 -15 2 -23c1 -58 -30 -112 -58 -139v-2c75 23 107 -32 179 -31c21 1 46 7 67 23z" />
    <glyph glyph-name="yen" unicode="&#xa5;" horiz-adv-x="437" 
d="M436 558l-150 -288h91v-54h-111v-66h111v-50h-111v-100h-85v100h-120v50h120v66h-120v54h101l-151 288l88 5l125 -251l125 251z" />
    <glyph glyph-name="plus" unicode="+" horiz-adv-x="538" 
d="M469 302v-79h-157v-168h-85v168h-158v79h158v168h85v-168h157z" />
    <glyph glyph-name="minus" unicode="&#x2212;" horiz-adv-x="521" 
d="M74 215v77h373v-77h-373z" />
    <glyph glyph-name="multiply" unicode="&#xd7;" horiz-adv-x="535" 
d="M466 406l-144 -146l144 -146l-56 -55l-143 145l-142 -144l-56 53l144 146l-144 146l56 55l143 -145l142 145z" />
    <glyph glyph-name="divide" unicode="&#xf7;" horiz-adv-x="521" 
d="M255 361c-31 0 -52 22 -52 52c0 31 21 52 52 52c30 0 51 -21 51 -52c0 -30 -21 -52 -51 -52zM69 229v71h383v-71h-383zM255 58c-31 0 -52 22 -52 52c0 31 21 52 52 52c30 0 51 -21 51 -52c0 -30 -21 -52 -51 -52z" />
    <glyph glyph-name="equal" unicode="=" horiz-adv-x="521" 
d="M70 318v77h373v-77h-373zM69 117v77h373v-77h-373z" />
    <glyph glyph-name="notequal" unicode="&#x2260;" horiz-adv-x="524" 
d="M438 319h-128l-41 -124h168v-77h-194l-32 -97h-78l32 97h-101v77h127l41 124h-167v77h192l36 108h78l-36 -108h103v-77z" />
    <glyph glyph-name="greater" unicode="&#x3e;" horiz-adv-x="442" 
d="M122 -16l-59 54l219 247l-221 248l59 54l263 -302z" />
    <glyph glyph-name="less" unicode="&#x3c;" horiz-adv-x="442" 
d="M320 -16l-261 301l263 302l59 -54l-221 -248l219 -247z" />
    <glyph glyph-name="asciitilde" unicode="~" horiz-adv-x="493" 
d="M115 195c-26 15 -51 29 -76 44c21 39 60 96 116 97c64 1 110 -53 157 -50c24 1 49 18 65 56l77 -42c-19 -46 -55 -100 -113 -101c-60 -2 -115 51 -162 50c-26 0 -43 -20 -64 -54z" />
    <glyph glyph-name="infinity" unicode="&#x221e;" horiz-adv-x="1032" 
d="M745 500c123 0 219 -89 219 -217c0 -123 -94 -216 -219 -216c-106 0 -171 70 -228 148c-55 -78 -121 -148 -230 -148c-126 0 -220 93 -220 216c0 130 97 217 220 217c108 0 174 -70 230 -149c56 79 121 149 228 149zM287 145c81 0 133 64 183 138
c-51 74 -103 139 -183 139c-79 0 -144 -59 -144 -139c0 -78 63 -138 144 -138zM744 145c80 0 144 58 144 138c0 77 -64 139 -144 139s-130 -64 -180 -138c51 -74 102 -139 180 -139z" />
    <glyph glyph-name="percent" unicode="%" horiz-adv-x="650" 
d="M101 0l374 560h65l-373 -560h-66zM157 311c-64 0 -114 52 -114 114c0 64 50 114 114 114s115 -50 115 -114c0 -62 -51 -114 -115 -114zM156 370c31 0 54 24 54 54s-23 55 -54 55c-29 0 -53 -25 -53 -55s24 -54 53 -54zM493 25c-64 0 -114 52 -114 114
c0 64 50 114 114 114s115 -50 115 -114c0 -62 -51 -114 -115 -114zM492 84c31 0 54 24 54 54s-23 55 -54 55c-29 0 -53 -25 -53 -55s24 -54 53 -54z" />
    <glyph glyph-name="at" unicode="@" horiz-adv-x="888" 
d="M840 236v-5c-2 -119 -43 -250 -175 -250c-52 0 -112 16 -136 99c-25 -35 -58 -73 -108 -80c-106 -17 -181 78 -181 218c0 132 78 250 192 225c41 -8 68 -39 89 -71v73l80 -6v-311c1 -43 19 -80 62 -80c93 0 107 127 108 188c-2 184 -136 327 -330 327
c-175 0 -326 -146 -326 -337c0 -196 154 -335 328 -335c77 -1 141 18 195 48l18 -64c-66 -37 -145 -54 -212 -53c-212 0 -396 170 -396 404c0 228 181 404 393 404c230 0 394 -171 399 -389v-5zM434 73c32 3 58 27 87 63v167c-24 33 -50 59 -80 66
c-68 12 -114 -58 -114 -152c0 -92 42 -148 107 -144z" />
    <glyph glyph-name="ampersand" unicode="&#x26;" horiz-adv-x="556" 
d="M507 257c-18 -49 -42 -102 -73 -148l55 -109h-91l-22 43c-34 -29 -76 -47 -125 -47c-110 0 -201 71 -201 180c0 94 61 168 162 187l-100 196h320v-80h-186l150 -296c17 33 30 67 42 98zM249 67c38 1 68 17 94 41l-97 188c-86 -8 -123 -67 -122 -122
c1 -60 52 -108 125 -107z" />
    <glyph glyph-name="copyright" unicode="&#xa9;" horiz-adv-x="966" 
d="M483 -108c-215 0 -389 174 -389 389s174 390 389 390c212 0 389 -175 389 -390s-177 -389 -389 -389zM483 -31c173 0 313 140 313 312c0 174 -140 313 -313 313s-315 -139 -315 -313c0 -172 142 -312 315 -312zM482 81c-108 0 -191 90 -191 199c0 111 83 199 191 199
c55 0 105 -23 142 -62l-53 -56c-21 23 -51 40 -89 40c-63 0 -117 -53 -117 -121c0 -67 54 -123 117 -123c33 0 63 17 84 39l55 -55c-36 -37 -85 -60 -139 -60z" />
    <glyph glyph-name="registered" unicode="&#xae;" horiz-adv-x="421" 
d="M211 296c-105 0 -190 86 -190 191c0 103 85 189 190 189c104 0 189 -86 189 -189c0 -105 -85 -191 -189 -191zM211 337c81 0 148 67 148 150c0 80 -67 148 -148 148c-82 0 -149 -68 -149 -148c0 -83 67 -150 149 -150zM161 406v160l44 2c36 3 61 -20 61 -56
c0 -23 -9 -42 -27 -51l33 -55h-39l-29 47h-10v-47h-33zM193 483h20c12 1 20 12 20 27c0 10 -2 22 -13 26c-7 3 -17 2 -27 0v-53z" />
    <glyph glyph-name="degree" unicode="&#xb0;" horiz-adv-x="350" 
d="M175 389c-64 0 -114 52 -114 114c0 64 50 114 114 114s115 -50 115 -114c0 -62 -51 -114 -115 -114zM174 448c31 0 54 24 54 54s-23 55 -54 55c-29 0 -53 -25 -53 -55s24 -54 53 -54z" />
    <glyph glyph-name="bar" unicode="|" horiz-adv-x="284" 
d="M99 -125v820l85 4v-824h-85z" />
    <glyph glyph-name="uni2116" unicode="&#x2116;" horiz-adv-x="896" 
d="M409 151v408h85v-559h-78l-254 408v-408h-85v557l80 4zM703 308c-64 0 -114 52 -114 114c0 64 50 114 114 114s115 -50 115 -114c0 -62 -51 -114 -115 -114zM702 476c-29 0 -53 -25 -53 -55s24 -54 53 -54c31 0 54 24 54 54s-23 55 -54 55zM593 117v67h224v-67h-224z" />
    <glyph glyph-name="asciicircum" unicode="^" horiz-adv-x="484" 
d="M421 458l-54 -55l-125 130l-125 -125l-54 54l179 170z" />
    <glyph glyph-name="uni0308" unicode="&#x308;" 
d="M-219 549c-28 0 -46 20 -46 48s18 46 46 46s48 -18 48 -46s-20 -48 -48 -48zM-50 549c-28 0 -46 20 -46 48s18 46 46 46s48 -18 48 -46s-20 -48 -48 -48z" />
    <glyph glyph-name="uni0307" unicode="&#x307;" 
d="M-54 545c-31 0 -53 22 -53 55c0 31 22 53 53 53c33 0 55 -22 55 -53c0 -33 -22 -55 -55 -55z" />
    <glyph glyph-name="gravecomb" unicode="&#x300;" 
d="M-27 524l-182 99l43 73l168 -118z" />
    <glyph glyph-name="acutecomb" unicode="&#x301;" 
d="M-182 525l-28 53l167 118l42 -72z" />
    <glyph glyph-name="uni030B" unicode="&#x30b;" 
d="M-165 516h-67l5 205l79 -5zM-22 514l-67 2l12 203l79 -5z" />
    <glyph glyph-name="caroncomb.alt" 
d="M-20 232l-62 2l3 211l81 -5z" />
    <glyph glyph-name="uni0302" unicode="&#x302;" 
d="M1 573l-44 -47l-80 72l-78 -72l-45 45l123 113z" />
    <glyph glyph-name="uni030C" unicode="&#x30c;" 
d="M-43 681l44 -47l-124 -110l-123 113l45 45l78 -73z" />
    <glyph glyph-name="uni0306" unicode="&#x306;" 
d="M-126 538c-55 0 -100 32 -127 74l48 41c12 -18 39 -47 79 -47c41 0 65 27 79 47l49 -41c-28 -43 -72 -74 -128 -74z" />
    <glyph glyph-name="uni030A" unicode="&#x30a;" 
d="M-86 517c-50 0 -88 41 -88 88c0 49 38 88 88 88c48 0 87 -39 87 -88c0 -47 -39 -88 -87 -88zM-87 570c20 0 34 15 34 35s-14 36 -34 36s-35 -16 -35 -36s15 -35 35 -35z" />
    <glyph glyph-name="tildecomb" unicode="&#x303;" 
d="M-212 547l-59 31c8 24 32 75 78 75c38 0 70 -35 98 -35c19 0 26 13 36 37l61 -29c-8 -21 -31 -77 -82 -77c-43 1 -71 37 -99 37c-16 0 -25 -19 -33 -39z" />
    <glyph glyph-name="uni0304" unicode="&#x304;" 
d="M-223 551v67h224v-67h-224z" />
    <glyph glyph-name="uni0312" unicode="&#x312;" 
d="M-79 700l81 -8l-36 -175l-65 5z" />
    <glyph glyph-name="uni0326" unicode="&#x326;" 
d="M-20 -217l-80 9l34 170l66 -6z" />
    <glyph glyph-name="uni0327" unicode="&#x327;" 
d="M-105 -43c59 13 106 -23 106 -75c0 -59 -45 -92 -101 -92c-49 0 -79 26 -89 41l30 36c7 -8 24 -24 56 -24c24 0 46 14 46 41c0 26 -24 41 -59 41c-15 -1 -26 -1 -39 -2l1 83h56z" />
    <glyph glyph-name="uni0328" unicode="&#x328;" 
d="M-235 -78c19 39 47 64 88 85l64 -6c-46 -26 -81 -50 -102 -78c-38 -51 16 -96 65 -48l32 -38c-86 -82 -195 -8 -147 85z" />
    <glyph glyph-name="uni0335" unicode="&#x335;" 
d="M-204 247v72h222l-1 -72h-221z" />
    <glyph glyph-name="uni0337" unicode="&#x337;" 
d="M-394 9l-31 31l395 402l31 -32z" />
    <glyph glyph-name="uni0338" unicode="&#x338;" 
d="M-488 14l-45 46l482 497l46 -46z" />
    <glyph glyph-name="uni0307.alt" 
d="M-46 568c-28 0 -46 20 -46 48s18 46 46 46s48 -18 48 -46s-20 -48 -48 -48z" />
    <glyph glyph-name="_f.f.alt" horiz-adv-x="245" 
d="M246 533c-39 0 -66 -26 -68 -66v-42h93v-73h-93v-352h-84l-1 352h-51v73h51v43c1 78 51 134 133 134c43 0 85 -16 112 -40l-30 -49c-13 12 -35 20 -62 20z" />
    </font>
</defs>
</svg>
